你所知道的4K资源这里全部都有 4K电影 | 4K视频 | 4K壁纸 | 4K MV 怎么播放4K视频 | 4K电视演示片▼

教你玩转4K私人与家庭影院存储 NAS组装 | 黑群辉 家庭/影院Nas论坛

4K家庭影院信号源与视频设备知识 4K蓝光高清播放机 - 那个品牌好? 4K投影机论坛 | 4K电视机论坛

手把手教你搭建属于自己的家庭影院 4K家庭影院案例 | 家庭影院音频 4K家庭影院论坛

跳转到指定楼层
楼主
发表于 2017-12-28 08:46 | 只看该作者 |只看大图 回帖奖励 |倒序浏览 |阅读模式

片  名:哈利·波特与火焰杯4k [下载地址在帖子底部]

  • 年  代:90年代  
  • 国  家:美国 
  • 类  别:冒险 奇幻 
  • 字  幕:英文原版
  • 上映日期:2005-11-06
  • 文件格式:mkv   
  • 视频效果:4K(3840x2160)    
  • 文件大小:58.89GB
  • 片  长:157分钟
  • 导  演:迈克·内威尔
  • 豆瓣链接:http://www.tuudc.com.cn//subject/1309055/
  • 主  演:丹尼尔·雷德克里夫 / 艾玛·沃森 / 鲁伯特·格林特 / 蒂莫西·斯波 / 邦妮·怀特 / 罗伯特·帕丁森 / 汤姆·费尔顿 / 梁佩诗 / 迈克尔·刚本 / 玛吉·史密斯 / 艾伦·瑞克曼 / 加里·奥德曼 / 拉尔夫·费因斯

剧情简介

这是一个不同寻常的学期,魔法学校的盛事:三强争霸赛在霍格沃茨举行。学生们争先报名,希翼获得永恒无上的荣誉。火焰杯在选出三所学校的三名勇士后,竟将未足年龄的哈利也挑选出来。
  哈利(Daniel Radcliffe饰)的当选引起其他学生的嫉妒连连,就连铁哥们罗恩(Rupert Grint饰)也首次和他闹起了别扭,哈利感到孤立无援,还好有教父小天狼星和赫敏一直支持他。可总有些好事者如记者丽塔等着看他的好戏。天知道这场比赛是何等艰辛危险,在龙的眼皮下偷蛋,潜入湖底救人,在迷宫中探险……一不小心,甚至可能付出生命的代价。
  黑魔王伏地魔的威胁渐渐显现,每一天都险象环生,动人心弦。

哈利波特4:火杯的考验(港/台) / 哈4/哈利·波特与火焰杯4k Harry.Potter.And.The.Goblet.Of.Fire.2005.2160p.BluRay.REMUX.HEVC.DTS-X.7.1-FGT 4K UHD蓝光原盘电影资源说明
第172部 4K UHD 蓝光原盘破解版,含完整的 BDMV 文件夹以及数据,AACS 2.0 协议已被完整破解

DISC INFO:

Disc Title:     Harry.Potter.And.The.Goblet.Of.Fire.2005.2160p.BluRay.HEVC.DTS-X.7.1-TASTED
Disc Size:      67,611,728,182 bytes
Protection:     AACS2
BD-Java:        Yes
Extras:         Ultra HD
BDInfo:         0.5.8.7 (compatible layout created by DVDFab 10.0.7.6)

PLAYLIST REPORT:

Name:                   00100.MPLS  
Length:                 2:37:05.624 (h:m:s.ms)
Size:                   66,920,595,456 bytes
Total Bitrate:          56.80 Mbps

(*) Indicates included stream hidden by this playlist.

VIDEO:

Codec                   Bitrate             Description     
-----                   -------             -----------     
MPEG-H HEVC Video       43878 kbps          2160p / 23.976 fps / 16:9 / Main 10 Profile 5.1 High / 4:2:0 / 10 bits / HDR / BT.2020 /

AUDIO:

Codec                           Language        Bitrate         Description     
-----                           --------        -------         -----------     
DTS:X/DTS-HD Master Audio       English         4051 kbps       7.1-X / 48 kHz / 4051 kbps / 24-bit (DTS Core: 5.1 / 48 kHz / 1509 kbps / 24-bit)
Dolby Digital Audio             English         192 kbps        2.0 / 48 kHz / 192 kbps / Dolby Surround
Dolby Digital Audio             French          448 kbps        5.1 / 48 kHz / 448 kbps
DTS-HD Master Audio             German          2314 kbps       5.1 / 48 kHz / 2314 kbps / 16-bit (DTS Core: 5.1 / 48 kHz / 1509 kbps / 16-bit)
Dolby Digital Audio             Italian         448 kbps        5.1 / 48 kHz / 448 kbps
Dolby Digital Audio             Spanish         448 kbps        5.1 / 48 kHz / 448 kbps
Dolby Digital Audio             Spanish         448 kbps        5.1 / 48 kHz / 448 kbps
Dolby Digital Audio             Portuguese      448 kbps        5.1 / 48 kHz / 448 kbps
Dolby Digital Audio             Catalan         448 kbps        5.1 / 48 kHz / 448 kbps
* Dolby Digital Audio           Japanese        448 kbps        5.1 / 48 kHz / 448 kbps

SUBTITLES:

Codec                           Language        Bitrate         Description     
-----                           --------        -------         -----------     
Presentation Graphics           English         27.006 kbps                     
Presentation Graphics           French          18.708 kbps                     
Presentation Graphics           German          29.954 kbps                     
Presentation Graphics           Italian         26.903 kbps                     
Presentation Graphics           Spanish         22.274 kbps                     
Presentation Graphics           Spanish         22.414 kbps                     
Presentation Graphics           Portuguese      23.21 kbps                     
Presentation Graphics           French          0.013 kbps                     
Presentation Graphics           German          0.077 kbps                     
Presentation Graphics           Italian         0.093 kbps                     
Presentation Graphics           Spanish         0.093 kbps                     
Presentation Graphics           Spanish         0.094 kbps                     
Presentation Graphics           Portuguese      0.097 kbps                     
* Presentation Graphics         Japanese        0.223 kbps                     
* Presentation Graphics         Japanese        18.056 kbps         



REMUX
Video
ID                                       : 1
Format                                   : HEVC
Format/Info                              : High Efficiency Video Coding
Format profile                           : Main 10@L5.1@High
Codec ID                                 : V_MPEGH/ISO/HEVC
Duration                                 : 2 h 37 min
Bit rate                                 : 43.9 Mb/s
Width                                    : 3 840 pixels
Height                                   : 2 160 pixels
Display aspect ratio                     : 16:9
Frame rate mode                          : Constant
Frame rate                               : 23.976 (24000/1001) FPS
Color space                              : YUV
Chroma subsampling                       : 4:2:0 (Type 2)
Bit depth                                : 10 bits
Bits/(Pixel*Frame)                       : 0.221
Stream size                              : 48.1 GiB (82%)
Title                                    : Harry.Potter.And.The.Goblet.Of.Fire.2005.2160p.BluRay.REMUX.HEVC.DTS-X.7.1-FGT
Writing library                          : ATEME Titan File 3.8.3 (4.8.3.0)        
Default                                  : Yes
Forced                                   : No
Color range                              : Limited
Color primaries                          : BT.2020
Transfer characteristics                 : PQ
Matrix coefficients                      : BT.2020 non-constant
Mastering display color primaries        : Display P3
Mastering display luminance              : min: 0.0050 cd/m2, max: 4000 cd/m2
Maximum Content Light Level              : 2848 cd/m2
Maximum Frame-Average Light Level        : 617 cd/m2

Audio #1
ID                                       : 2
Format                                   : DTS
Format/Info                              : Digital Theater Systems
Format profile                           : X / MA / Core
Codec ID                                 : A_DTS
Duration                                 : 2 h 37 min
Bit rate mode                            : Variable / Variable / Constant
Bit rate                                 : 4 051 kb/s / 4 051 kb/s / 1 509 kb/s
Channel(s)                               : Object Based / 8 channels / 6 channels
Channel positions                        : Object Based / Front: L C R, Side: L R, Back: L R, LFE / Front: L C R, Side: L R, LFE
Sampling rate                            :  / 48.0 kHz / 48.0 kHz
Frame rate                               : 93.750 FPS (512 SPF)
Bit depth                                :  / 24 bits / 24 bits
Compression mode                         :  / Lossless / Lossy
Stream size                              : 4.45 GiB (8%)
Title                                    : Harry.Potter.And.The.Goblet.Of.Fire.2005.2160p.BluRay.REMUX.HEVC.DTS-X.7.1-FGT
Language                                 : English
Default                                  : Yes
Forced                                   : No

Audio #2
ID                                       : 3
Format                                   : AC-3
Format/Info                              : Audio Coding 3
Codec ID                                 : A_AC3
Duration                                 : 2 h 37 min
Bit rate mode                            : Constant
Bit rate                                 : 448 kb/s
Channel(s)                               : 6 channels
Channel positions                        : Front: L C R, Side: L R, LFE
Sampling rate                            : 48.0 kHz
Frame rate                               : 31.250 FPS (1536 SPF)
Bit depth                                : 16 bits
Compression mode                         : Lossy
Stream size                              : 503 MiB (1%)
Title                                    : Harry.Potter.And.The.Goblet.Of.Fire.2005.2160p.BluRay.REMUX.HEVC.DTS-X.7.1-FGT
Language                                 : Japanese
Service kind                             : Complete Main
Default                                  : No
Forced                                   : No

Audio #3
ID                                       : 4
Format                                   : AC-3
Format/Info                              : Audio Coding 3
Codec ID                                 : A_AC3
Duration                                 : 2 h 37 min
Bit rate mode                            : Constant
Bit rate                                 : 192 kb/s
Channel(s)                               : 2 channels
Channel positions                        : Front: L R
Sampling rate                            : 48.0 kHz
Frame rate                               : 31.250 FPS (1536 SPF)
Bit depth                                : 16 bits
Compression mode                         : Lossy
Stream size                              : 216 MiB (0%)
Title                                    : Harry.Potter.And.The.Goblet.Of.Fire.2005.2160p.BluRay.REMUX.HEVC.DTS-X.7.1-FGT
Language                                 : English
Service kind                             : Complete Main
Default                                  : No
Forced                                   : No

Audio #4
ID                                       : 5
Format                                   : AC-3
Format/Info                              : Audio Coding 3
Codec ID                                 : A_AC3
Duration                                 : 2 h 37 min
Bit rate mode                            : Constant
Bit rate                                 : 448 kb/s
Channel(s)                               : 6 channels
Channel positions                        : Front: L C R, Side: L R, LFE
Sampling rate                            : 48.0 kHz
Frame rate                               : 31.250 FPS (1536 SPF)
Bit depth                                : 16 bits
Compression mode                         : Lossy
Stream size                              : 503 MiB (1%)
Title                                    : Harry.Potter.And.The.Goblet.Of.Fire.2005.2160p.BluRay.REMUX.HEVC.DTS-X.7.1-FGT
Language                                 : French
Service kind                             : Complete Main
Default                                  : No
Forced                                   : No

Audio #5
ID                                       : 6
Format                                   : DTS
Format/Info                              : Digital Theater Systems
Format profile                           : MA / Core
Codec ID                                 : A_DTS
Duration                                 : 2 h 37 min
Bit rate mode                            : Variable / Constant
Bit rate                                 : 2 314 kb/s / 1 509 kb/s
Channel(s)                               : 6 channels
Channel positions                        : Front: L C R, Side: L R, LFE
Sampling rate                            : 48.0 kHz
Frame rate                               : 93.750 FPS (512 SPF)
Bit depth                                : 16 bits
Compression mode                         : Lossless / Lossy
Stream size                              : 2.54 GiB (4%)
Title                                    : Harry.Potter.And.The.Goblet.Of.Fire.2005.2160p.BluRay.REMUX.HEVC.DTS-X.7.1-FGT
Language                                 : German
Default                                  : No
Forced                                   : No

Audio #6
ID                                       : 7
Format                                   : AC-3
Format/Info                              : Audio Coding 3
Codec ID                                 : A_AC3
Duration                                 : 2 h 37 min
Bit rate mode                            : Constant
Bit rate                                 : 448 kb/s
Channel(s)                               : 6 channels
Channel positions                        : Front: L C R, Side: L R, LFE
Sampling rate                            : 48.0 kHz
Frame rate                               : 31.250 FPS (1536 SPF)
Bit depth                                : 16 bits
Compression mode                         : Lossy
Stream size                              : 503 MiB (1%)
Title                                    : Harry.Potter.And.The.Goblet.Of.Fire.2005.2160p.BluRay.REMUX.HEVC.DTS-X.7.1-FGT
Language                                 : Italian
Service kind                             : Complete Main
Default                                  : No
Forced                                   : No

Audio #7
ID                                       : 8
Format                                   : AC-3
Format/Info                              : Audio Coding 3
Codec ID                                 : A_AC3
Duration                                 : 2 h 37 min
Bit rate mode                            : Constant
Bit rate                                 : 448 kb/s
Channel(s)                               : 6 channels
Channel positions                        : Front: L C R, Side: L R, LFE
Sampling rate                            : 48.0 kHz
Frame rate                               : 31.250 FPS (1536 SPF)
Bit depth                                : 16 bits
Compression mode                         : Lossy
Stream size                              : 503 MiB (1%)
Title                                    : Harry.Potter.And.The.Goblet.Of.Fire.2005.2160p.BluRay.REMUX.HEVC.DTS-X.7.1-FGT
Language                                 : Spanish
Service kind                             : Complete Main
Default                                  : No
Forced                                   : No

Audio #8
ID                                       : 9
Format                                   : AC-3
Format/Info                              : Audio Coding 3
Codec ID                                 : A_AC3
Duration                                 : 2 h 37 min
Bit rate mode                            : Constant
Bit rate                                 : 448 kb/s
Channel(s)                               : 6 channels
Channel positions                        : Front: L C R, Side: L R, LFE
Sampling rate                            : 48.0 kHz
Frame rate                               : 31.250 FPS (1536 SPF)
Bit depth                                : 16 bits
Compression mode                         : Lossy
Stream size                              : 503 MiB (1%)
Title                                    : Harry.Potter.And.The.Goblet.Of.Fire.2005.2160p.BluRay.REMUX.HEVC.DTS-X.7.1-FGT
Language                                 : Spanish
Service kind                             : Complete Main
Default                                  : No
Forced                                   : No

Audio #9
ID                                       : 10
Format                                   : AC-3
Format/Info                              : Audio Coding 3
Codec ID                                 : A_AC3
Duration                                 : 2 h 37 min
Bit rate mode                            : Constant
Bit rate                                 : 448 kb/s
Channel(s)                               : 6 channels
Channel positions                        : Front: L C R, Side: L R, LFE
Sampling rate                            : 48.0 kHz
Frame rate                               : 31.250 FPS (1536 SPF)
Bit depth                                : 16 bits
Compression mode                         : Lossy
Stream size                              : 503 MiB (1%)
Title                                    : Harry.Potter.And.The.Goblet.Of.Fire.2005.2160p.BluRay.REMUX.HEVC.DTS-X.7.1-FGT
Language                                 : Portuguese
Service kind                             : Complete Main
Default                                  : No
Forced                                   : No

Audio #10
ID                                       : 11
Format                                   : AC-3
Format/Info                              : Audio Coding 3
Codec ID                                 : A_AC3
Duration                                 : 2 h 37 min
Bit rate mode                            : Constant
Bit rate                                 : 448 kb/s
Channel(s)                               : 6 channels
Channel positions                        : Front: L C R, Side: L R, LFE
Sampling rate                            : 48.0 kHz
Frame rate                               : 31.250 FPS (1536 SPF)
Bit depth                                : 16 bits
Compression mode                         : Lossy
Stream size                              : 503 MiB (1%)
Title                                    : Harry.Potter.And.The.Goblet.Of.Fire.2005.2160p.BluRay.REMUX.HEVC.DTS-X.7.1-FGT
Language                                 : Catalan
Service kind                             : Complete Main
Default                                  : No
Forced                                   : No

Text #1
ID                                       : 12
Format                                   : PGS
Muxing mode                              : zlib
Codec ID                                 : S_HDMV/PGS
Codec ID/Info                            : Picture based subtitle format used on BDs/HD-DVDs
Duration                                 : 2 h 36 min
Bit rate                                 : 27.1 kb/s
Count of elements                        : 3608
Stream size                              : 30.3 MiB (0%)
Title                                    : English-PGS
Language                                 : English
Default                                  : Yes
Forced                                   : No

Text #2
ID                                       : 13
Format                                   : PGS
Muxing mode                              : zlib
Codec ID                                 : S_HDMV/PGS
Codec ID/Info                            : Picture based subtitle format used on BDs/HD-DVDs
Duration                                 : 2 h 22 min
Bit rate                                 : 19.9 kb/s
Count of elements                        : 3415
Stream size                              : 20.3 MiB (0%)
Title                                    : Japanese-PGS
Language                                 : Japanese
Default                                  : No
Forced                                   : No

Text #3
ID                                       : 14
Format                                   : PGS
Muxing mode                              : zlib
Codec ID                                 : S_HDMV/PGS
Codec ID/Info                            : Picture based subtitle format used on BDs/HD-DVDs
Duration                                 : 1 h 21 min
Bit rate                                 : 429 b/s
Count of elements                        : 180
Stream size                              : 257 KiB (0%)
Title                                    : Japanese-PGS
Language                                 : Japanese
Default                                  : No
Forced                                   : No

Text #4
ID                                       : 15
Format                                   : PGS
Muxing mode                              : zlib
Codec ID                                 : S_HDMV/PGS
Codec ID/Info                            : Picture based subtitle format used on BDs/HD-DVDs
Duration                                 : 2 h 35 min
Bit rate                                 : 18.8 kb/s
Count of elements                        : 3096
Stream size                              : 21.0 MiB (0%)
Title                                    : French-PGS
Language                                 : French
Default                                  : No
Forced                                   : No

Text #5
ID                                       : 16
Format                                   : PGS
Muxing mode                              : zlib
Codec ID                                 : S_HDMV/PGS
Codec ID/Info                            : Picture based subtitle format used on BDs/HD-DVDs
Duration                                 : 2 h 36 min
Bit rate                                 : 30.1 kb/s
Count of elements                        : 3656
Stream size                              : 33.7 MiB (0%)
Title                                    : German-PGS
Language                                 : German
Default                                  : No
Forced                                   : No

Text #6
ID                                       : 17
Format                                   : PGS
Muxing mode                              : zlib
Codec ID                                 : S_HDMV/PGS
Codec ID/Info                            : Picture based subtitle format used on BDs/HD-DVDs
Duration                                 : 2 h 36 min
Bit rate                                 : 27.0 kb/s
Count of elements                        : 3616
Stream size                              : 30.2 MiB (0%)
Title                                    : Italian-PGS
Language                                 : Italian
Default                                  : No
Forced                                   : No

Text #7
ID                                       : 18
Format                                   : PGS
Muxing mode                              : zlib
Codec ID                                 : S_HDMV/PGS
Codec ID/Info                            : Picture based subtitle format used on BDs/HD-DVDs
Duration                                 : 2 h 36 min
Bit rate                                 : 22.4 kb/s
Count of elements                        : 2988
Stream size                              : 25.0 MiB (0%)
Title                                    : Spanish-PGS
Language                                 : Spanish
Default                                  : No
Forced                                   : No

Text #8
ID                                       : 19
Format                                   : PGS
Muxing mode                              : zlib
Codec ID                                 : S_HDMV/PGS
Codec ID/Info                            : Picture based subtitle format used on BDs/HD-DVDs
Duration                                 : 2 h 36 min
Bit rate                                 : 22.6 kb/s
Count of elements                        : 2996
Stream size                              : 25.2 MiB (0%)
Title                                    : Spanish-PGS
Language                                 : Spanish
Default                                  : No
Forced                                   : No

Text #9
ID                                       : 20
Format                                   : PGS
Muxing mode                              : zlib
Codec ID                                 : S_HDMV/PGS
Codec ID/Info                            : Picture based subtitle format used on BDs/HD-DVDs
Duration                                 : 2 h 36 min
Bit rate                                 : 23.4 kb/s
Count of elements                        : 2962
Stream size                              : 26.1 MiB (0%)
Title                                    : Portuguese-PGS
Language                                 : Portuguese
Default                                  : No
Forced                                   : No

Text #10
ID                                       : 21
Format                                   : PGS
Muxing mode                              : zlib
Codec ID                                 : S_HDMV/PGS
Codec ID/Info                            : Picture based subtitle format used on BDs/HD-DVDs
Duration                                 : 37 min 11 s
Bit rate                                 : 54 b/s
Count of elements                        : 4
Stream size                              : 15.0 KiB (0%)
Title                                    : French-FORCED-PGS
Language                                 : French
Default                                  : No
Forced                                   : No

Text #11
ID                                       : 22
Format                                   : PGS
Muxing mode                              : zlib
Codec ID                                 : S_HDMV/PGS
Codec ID/Info                            : Picture based subtitle format used on BDs/HD-DVDs
Duration                                 : 2 h 23 min
Bit rate                                 : 84 b/s
Count of elements                        : 10
Stream size                              : 88.5 KiB (0%)
Title                                    : German-FORCED-PGS
Language                                 : German
Default                                  : No
Forced                                   : No

Text #12
ID                                       : 23
Format                                   : PGS
Muxing mode                              : zlib
Codec ID                                 : S_HDMV/PGS
Codec ID/Info                            : Picture based subtitle format used on BDs/HD-DVDs
Duration                                 : 40 min 27 s
Bit rate                                 : 360 b/s
Count of elements                        : 12
Stream size                              : 107 KiB (0%)
Title                                    : Italian-FORCED-PGS
Language                                 : Italian
Default                                  : No
Forced                                   : No

Text #13
ID                                       : 24
Format                                   : PGS
Muxing mode                              : zlib
Codec ID                                 : S_HDMV/PGS
Codec ID/Info                            : Picture based subtitle format used on BDs/HD-DVDs
Duration                                 : 35 min 19 s
Bit rate                                 : 411 b/s
Count of elements                        : 10
Stream size                              : 106 KiB (0%)
Title                                    : Spanish-FORCED-PGS
Language                                 : Spanish
Default                                  : No
Forced                                   : No

Text #14
ID                                       : 25
Format                                   : PGS
Muxing mode                              : zlib
Codec ID                                 : S_HDMV/PGS
Codec ID/Info                            : Picture based subtitle format used on BDs/HD-DVDs
Duration                                 : 2 h 28 min
Bit rate                                 : 99 b/s
Count of elements                        : 14
Stream size                              : 108 KiB (0%)
Title                                    : Spanish-FORCED-PGS
Language                                 : Spanish
Default                                  : No
Forced                                   : No

Text #15
ID                                       : 26
Format                                   : PGS
Muxing mode                              : zlib
Codec ID                                 : S_HDMV/PGS
Codec ID/Info                            : Picture based subtitle format used on BDs/HD-DVDs
Duration                                 : 2 h 28 min
Bit rate                                 : 102 b/s
Count of elements                        : 16
Stream size                              : 111 KiB (0%)
Title                                    : Portuguese-FORCED-PGS
Language                                 : Portuguese
Default                                  : No
Forced                                   : No

Menu
00:00:00.000                             : en:Chapter 1
00:03:46.559                             : en:Chapter 2
00:06:09.369                             : en:Chapter 3
00:09:50.089                             : en:Chapter 4
00:13:45.324                             : en:Chapter 5
00:19:14.987                             : en:Chapter 6
00:23:09.388                             : en:Chapter 7
00:29:01.573                             : en:Chapter 8
00:36:26.684                             : en:Chapter 9
00:39:05.009                             : en:Chapter 10
00:41:32.490                             : en:Chapter 11
00:45:36.400                             : en:Chapter 12
00:49:07.778                             : en:Chapter 13
00:54:06.243                             : en:Chapter 14
01:02:46.596                             : en:Chapter 15
01:09:12.982                             : en:Chapter 16
01:14:43.979                             : en:Chapter 17
01:22:27.609                             : en:Chapter 18
01:30:34.762                             : en:Chapter 19
01:39:29.296                             : en:Chapter 20
01:42:42.489                             : en:Chapter 21
01:47:22.936                             : en:Chapter 22
01:50:19.279                             : en:Chapter 23
01:58:54.460                             : en:Chapter 24
02:02:02.315                             : en:Chapter 25
02:06:36.589                             : en:Chapter 26
02:10:01.627                             : en:Chapter 27
02:17:38.083                             : en:Chapter 28
02:23:48.620                             : en:Chapter 29

哈利波特4:火杯的考验(港/台) / 哈4/哈利·波特与火焰杯4k Harry.Potter.And.The.Goblet.Of.Fire.2005.2160p.BluRay.REMUX.HEVC.DTS-X.7.1-FGT 4K UHD蓝光原盘电影资源说下载

哈利·波特与火焰杯4k Harry.Potter.And.The.Goblet.Of.Fire.2005.2160p.BluRay.REMUX.HEVC.DTS-X.7.1-FGT  (4K UHD 蓝光原盘破解版 2160p  58.89GB)
游客,如果您要查看本帖隐藏内容请回复

哈利·波特与火焰杯4k Harry.Potter.And.The.Goblet.Of.Fire.2005.2160p.BluRay.HEVC.DTS-X.7.1-TASTED   (4K UHD 蓝光原盘破解版 2160p 62.07GB)
游客,如果您要查看本帖隐藏内容请回复


 
沙发
发表于 2017-12-28 08:48 | 只看该作者
果断回帖!!!
板凳
发表于 2017-12-28 08:50 | 只看该作者
啥也不说了,感谢楼主在hao4k分享4k视频内容哇!
地板
发表于 2017-12-28 09:01 | 只看该作者
啥也不说了,感谢楼主在hao4k分享4k视频内容哇!
5#
发表于 2017-12-28 09:39 | 只看该作者
啥也不说了,感谢楼主在hao4k分享4k视频内容哇!
6#
发表于 2017-12-28 09:45 | 只看该作者
确实是难得4k好帖啊,顶先
7#
发表于 2017-12-28 09:47 | 只看该作者
经典大收藏!!!!!
8#
发表于 2017-12-28 09:52 | 只看该作者
啥也不说了,感谢楼主在hao4k分享4k视频内容哇!
9#
发表于 2017-12-28 10:05 | 只看该作者
10#
发表于 2017-12-28 10:16 | 只看该作者
确实是难得4k好帖啊,顶先
11#
发表于 2017-12-28 10:25 | 只看该作者
一天就有三片
哈哈太開心了
下載這三片真是太值得了
12#
发表于 2017-12-28 10:29 | 只看该作者
好资源大家分享,007 皇家赌场:多谢了
13#
发表于 2017-12-28 10:55 | 只看该作者
啥也不说了,感谢楼主在hao4k分享4k视频内容哇!
14#
发表于 2017-12-28 11:11 | 只看该作者
这个好,谢谢分享!
15#
发表于 2017-12-28 11:12 | 只看该作者
支持hao4k,支持楼主大人发布4k资源!
16#
发表于 2017-12-28 11:24 | 只看该作者
真是太好了
17#
发表于 2017-12-28 11:29 | 只看该作者
支持hao4k,支持楼主大人发布4k资源!
18#
发表于 2017-12-28 11:40 | 只看该作者
一直在期待啊
您需要登录后才可以回帖 登录 | 立即注册

本版积分规则

返回顶部 联系我们