你所知道的4K资源这里全部都有 4K电影 | 4K视频 | 4K壁纸 | 4K MV 怎么播放4K视频 | 4K电视演示片▼

教你玩转4K私人与家庭影院存储 NAS组装 | 黑群辉 家庭/影院Nas论坛

4K家庭影院信号源与视频设备知识 4K蓝光高清播放机 - 那个品牌好? 4K投影机论坛 | 4K电视机论坛

手把手教你搭建属于自己的家庭影院 4K家庭影院案例 | 家庭影院音频 4K家庭影院论坛

跳转到指定楼层
楼主
发表于 2018-1-15 19:49 | 只看该作者 回帖奖励 |倒序浏览 |阅读模式

片  名:美国行动 4k [下载地址在帖子底部]

  • 年  代:2017  
  • 国  家:美国 
  • 类  别:动作 犯罪 喜剧 传记 
  • 字  幕:英文原版
  • 上映日期:2017-09-29
  • 文件格式:mkv   
  • 视频效果:4K(3840x2160)    
  • 文件大小:61.02GB
  • 片  长:115分钟
  • 导  演:道格·里曼
  • 豆瓣链接:http://www.tuudc.com.cn//subject/26304310/
  • 主  演:汤姆·克鲁斯 / 萨拉·赖特 / 多姆纳尔·格里森 / 杰西·普莱蒙 / 卡赖伯·兰德里·琼斯 / 罗拉·科克 / 杰玛·梅斯 / 康纳·特里内尔 / 本尼托·马丁内斯 / 艾普尔·比尔林斯利 / 杰德·瑞斯 / 斯蒂芬·考特尔 / 罗伯特·普拉尔戈 / E·罗杰·米切尔 / 贾斯蒂斯·利克 / 莎朗·莫里斯 / 罗伯特·法里奥尔 / Alejandro Edda

剧情简介

《美国行动》取材于美国大毒枭巴里·希尔(Barry Seal)的真实经历。阿汤哥在影片中身兼飞行员、毒枭、CIA卧底三重身份,表面上在为美国中情局工作,利用飞行员身份频繁往返于美洲各个国家窃取情报;同时又为美洲历史上最臭名昭著的国际贩毒集团——麦德林集团向美国走私毒品,单枪匹马开拓出从美洲丛林腹地空运毒品到美国境内的“新航线”。在美洲瞬息万变的政治格局之下,巴里·希尔毫无意外地卷入当时敏感又复杂的国际政治博弈中,每天与情报、枪支、毒品、洗钱种种犯罪行为打交道,同时又周旋在美国政府、军方、FBI以及美洲非政府武装之间,与他们有着错综复杂的关系,建立起令人难以想象的“空中走私帝国”。


美国制造 / 梅纳 / 巴利薛尔: 飞常任务(港) /  美国行动 4k American.Made.2017.2160p.BluRay.REMUX.HEVC.DTS-X.7.1-FGT   4K UHD蓝光原盘电影资源信息

第207部 4K UHD 蓝光原盘破解版,含完整的 BDMV 文件夹以及数据,AACS 2.0 协议已被完整破解。
DISC INFO:

Disc Title:     American.Made.2017.2160p.BluRay.HEVC.DTS-X.7.1-COASTER
Disc Size:      65,515,455,843 bytes
Protection:     AACS2
BD-Java:        Yes
Extras:         Ultra HD
BDInfo:         0.5.8.7 (compatible layout created by DVDFab 10.0.7.7)

PLAYLIST REPORT:

Name:                   00800.MPLS  
Length:                 1:54:53.887 (h:m:s.ms)
Size:                   64,632,416,256 bytes
Total Bitrate:          75.00 Mbps

VIDEO:

Codec                   Bitrate             Description     
-----                   -------             -----------     
MPEG-H HEVC Video       62675 kbps          2160p / 23.976 fps / 16:9 / Main 10 Profile 5.1 High / 4:2:0 / 10 bits / HDR / BT.2020 /

AUDIO:

Codec                           Language        Bitrate         Description     
-----                           --------        -------         -----------     
DTS:X/DTS-HD Master Audio       English         6908 kbps       7.1-X / 48 kHz / 6908 kbps / 24-bit (DTS Core: 5.1 / 48 kHz / 1509 kbps / 24-bit)
DTS Audio                       English         256 kbps        2.0 / 48 kHz / 256 kbps / 24-bit
DTS Audio                       Spanish         768 kbps        5.1 / 48 kHz / 768 kbps / 24-bit
DTS Audio                       French          768 kbps        5.1 / 48 kHz / 768 kbps / 24-bit

SUBTITLES:

Codec                           Language        Bitrate         Description     
-----                           --------        -------         -----------     
Presentation Graphics           English         40.988 kbps                     
Presentation Graphics           Spanish         30.821 kbps                     
Presentation Graphics           French          30.933 kbps                     
Presentation Graphics           Spanish         1.1 kbps                        
Presentation Graphics           French          1.502 kbps            

REMUX

Video
ID                                       : 1
Format                                   : HEVC
Format/Info                              : High Efficiency Video Coding
Format profile                           : Main 10@L5.1@High
Codec ID                                 : V_MPEGH/ISO/HEVC
Duration                                 : 1 h 54 min
Bit rate                                 : 62.7 Mb/s
Width                                    : 3 840 pixels
Height                                   : 2 160 pixels
Display aspect ratio                     : 16:9
Frame rate mode                          : Constant
Frame rate                               : 23.976 (24000/1001) FPS
Color space                              : YUV
Chroma subsampling                       : 4:2:0 (Type 2)
Bit depth                                : 10 bits
Bits/(Pixel*Frame)                       : 0.315
Stream size                              : 50.3 GiB (88%)
Title                                    : American.Made.2017.2160p.BluRay.REMUX.HEVC.DTS-X.7.1-FGT
Writing library                          : ATEME Titan File 3.8.3 (4.8.3.0)        
Default                                  : Yes
Forced                                   : No
Color range                              : Limited
Color primaries                          : BT.2020
Transfer characteristics                 : PQ
Matrix coefficients                      : BT.2020 non-constant
Mastering display color primaries        : Display P3
Mastering display luminance              : min: 0.0050 cd/m2, max: 1000 cd/m2
Maximum Content Light Level              : 853 cd/m2
Maximum Frame-Average Light Level        : 112 cd/m2

Audio #1
ID                                       : 2
Format                                   : DTS
Format/Info                              : Digital Theater Systems
Format profile                           : X / MA / Core
Codec ID                                 : A_DTS
Duration                                 : 1 h 54 min
Bit rate mode                            : Variable / Variable / Constant
Bit rate                                 : 6 908 kb/s / 6 908 kb/s / 1 509 kb/s
Channel(s)                               : Object Based / 8 channels / 6 channels
Channel positions                        : Object Based / Front: L C R, Side: L R, Back: L R, LFE / Front: L C R, Side: L R, LFE
Sampling rate                            :  / 48.0 kHz / 48.0 kHz
Frame rate                               : 93.750 FPS (512 SPF)
Bit depth                                :  / 24 bits / 24 bits
Compression mode                         :  / Lossless / Lossy
Stream size                              : 5.51 GiB (10%)
Title                                    : American.Made.2017.2160p.BluRay.REMUX.HEVC.DTS-X.7.1-FGT
Language                                 : English
Default                                  : Yes
Forced                                   : No

Audio #2
ID                                       : 3
Format                                   : DTS
Format/Info                              : Digital Theater Systems
Codec ID                                 : A_DTS
Duration                                 : 1 h 54 min
Bit rate mode                            : Constant
Bit rate                                 : 255 kb/s
Channel(s)                               : 2 channels
Channel positions                        : Front: L R
Sampling rate                            : 48.0 kHz
Frame rate                               : 93.750 FPS (512 SPF)
Bit depth                                : 24 bits
Compression mode                         : Lossy
Stream size                              : 210 MiB (0%)
Title                                    : American.Made.2017.2160p.BluRay.REMUX.HEVC.DTS-X.7.1-FGT
Language                                 : English
Default                                  : No
Forced                                   : No

Audio #3
ID                                       : 4
Format                                   : DTS
Format/Info                              : Digital Theater Systems
Codec ID                                 : A_DTS
Duration                                 : 1 h 54 min
Bit rate mode                            : Constant
Bit rate                                 : 768 kb/s
Channel(s)                               : 6 channels
Channel positions                        : Front: L C R, Side: L R, LFE
Sampling rate                            : 48.0 kHz
Frame rate                               : 93.750 FPS (512 SPF)
Bit depth                                : 24 bits
Compression mode                         : Lossy
Stream size                              : 631 MiB (1%)
Title                                    : American.Made.2017.2160p.BluRay.REMUX.HEVC.DTS-X.7.1-FGT
Language                                 : Spanish
Default                                  : No
Forced                                   : No

Audio #4
ID                                       : 5
Format                                   : DTS
Format/Info                              : Digital Theater Systems
Codec ID                                 : A_DTS
Duration                                 : 1 h 54 min
Bit rate mode                            : Constant
Bit rate                                 : 768 kb/s
Channel(s)                               : 6 channels
Channel positions                        : Front: L C R, Side: L R, LFE
Sampling rate                            : 48.0 kHz
Frame rate                               : 93.750 FPS (512 SPF)
Bit depth                                : 24 bits
Compression mode                         : Lossy
Stream size                              : 631 MiB (1%)
Title                                    : American.Made.2017.2160p.BluRay.REMUX.HEVC.DTS-X.7.1-FGT
Language                                 : French
Default                                  : No
Forced                                   : No

Text #1
ID                                       : 6
Format                                   : PGS
Muxing mode                              : zlib
Codec ID                                 : S_HDMV/PGS
Codec ID/Info                            : Picture based subtitle format used on BDs/HD-DVDs
Duration                                 : 1 h 45 min
Bit rate                                 : 44.5 kb/s
Count of elements                        : 3496
Stream size                              : 33.7 MiB (0%)
Title                                    : English-PGS
Language                                 : English
Default                                  : Yes
Forced                                   : No

Text #2
ID                                       : 7
Format                                   : PGS
Muxing mode                              : zlib
Codec ID                                 : S_HDMV/PGS
Codec ID/Info                            : Picture based subtitle format used on BDs/HD-DVDs
Duration                                 : 1 h 53 min
Bit rate                                 : 31.3 kb/s
Count of elements                        : 2908
Stream size                              : 25.3 MiB (0%)
Title                                    : Spanish-PGS
Language                                 : Spanish
Default                                  : No
Forced                                   : No

Text #3
ID                                       : 8
Format                                   : PGS
Muxing mode                              : zlib
Codec ID                                 : S_HDMV/PGS
Codec ID/Info                            : Picture based subtitle format used on BDs/HD-DVDs
Duration                                 : 1 h 53 min
Bit rate                                 : 31.4 kb/s
Count of elements                        : 2980
Stream size                              : 25.4 MiB (0%)
Title                                    : French-PGS
Language                                 : French
Default                                  : No
Forced                                   : No

Text #4
ID                                       : 9
Format                                   : PGS
Muxing mode                              : zlib
Codec ID                                 : S_HDMV/PGS
Codec ID/Info                            : Picture based subtitle format used on BDs/HD-DVDs
Duration                                 : 1 h 52 min
Bit rate                                 : 1 119 b/s
Count of elements                        : 98
Stream size                              : 926 KiB (0%)
Title                                    : Spanish-FORCED-PGS
Language                                 : Spanish
Default                                  : No
Forced                                   : No

Text #5
ID                                       : 10
Format                                   : PGS
Muxing mode                              : zlib
Codec ID                                 : S_HDMV/PGS
Codec ID/Info                            : Picture based subtitle format used on BDs/HD-DVDs
Duration                                 : 1 h 53 min
Bit rate                                 : 1 524 b/s
Count of elements                        : 142
Stream size                              : 1.23 MiB (0%)
Title                                    : French-FORCED-PGS
Language                                 : French
Default                                  : No
Forced                                   : No

Menu
00:00:00.000                             : en:Chapter 1
00:05:55.855                             : en:Chapter 2
00:10:38.054                             : en:Chapter 3
00:14:32.037                             : en:Chapter 4
00:21:15.148                             : en:Chapter 5
00:27:20.764                             : en:Chapter 6
00:33:43.229                             : en:Chapter 7
00:40:58.122                             : en:Chapter 8
00:46:11.560                             : en:Chapter 9
00:51:52.651                             : en:Chapter 10
00:54:55.250                             : en:Chapter 11
00:59:53.715                             : en:Chapter 12
01:07:25.374                             : en:Chapter 13
01:13:02.044                             : en:Chapter 14
01:17:08.415                             : en:Chapter 15
01:23:16.866                             : en:Chapter 16
01:26:12.250                             : en:Chapter 17
01:33:30.021                             : en:Chapter 18
01:38:34.992                             : en:Chapter 19
01:46:12.491                             : en:Chapter 20

美国制造 / 梅纳 / 巴利薛尔: 飞常任务(港) /  美国行动 4k American.Made.2017.2160p.BluRay.REMUX.HEVC.DTS-X.7.1-FGT   4K UHD蓝光原盘电影资源下载


美国行动 4k American.Made.2017.2160p.BluRay.HEVC.DTS-X.7.1-COASTER   (4K UHD 蓝光原盘破解版 2160p 61.02GB )
游客,如果您要查看本帖隐藏内容请回复

美国行动 4k American.Made.2017.2160p.BluRay.REMUX.HEVC.DTS-X.7.1-FGT   (4K UHD 蓝光原盘破解版 2160p 54.96GB )
游客,如果您要查看本帖隐藏内容请回复

评分

参与人数 1活跃度 +3 收起 理由
liyubin85 + 3

查看全部评分



 
沙发
发表于 2018-1-15 19:51 | 只看该作者
我只是路过打酱油的,赞hao4k
板凳
发表于 2018-1-15 20:08 | 只看该作者
地板
发表于 2018-1-15 20:12 | 只看该作者
啥也不说了,感谢楼主在hao4k分享4k视频内容哇!
5#
发表于 2018-1-15 20:16 | 只看该作者
6#
发表于 2018-1-15 20:38 | 只看该作者
好滴哦哦那个
7#
发表于 2018-1-15 20:40 | 只看该作者
额,看不懂在说神马~@_@
8#
发表于 2018-1-15 20:40 | 只看该作者
感谢楼主在hao4k分享4k视频内容哇!
9#
发表于 2018-1-15 20:42 | 只看该作者
啥也不说了,感谢楼主在hao4k分享4k视频内容哇!
10#
发表于 2018-1-15 20:43 | 只看该作者
謝謝分享影片
11#
发表于 2018-1-15 20:48 | 只看该作者
感谢楼主在hao4k分享
12#
发表于 2018-1-15 20:53 | 只看该作者
啥也不说了,感谢楼主在hao4k分享4k视频内容哇!
13#
发表于 2018-1-15 21:06 | 只看该作者
可以下载吗
14#
发表于 2018-1-15 21:14 | 只看该作者
好东西,很多地方都下不了高清只有这里靠谱
15#
发表于 2018-1-15 21:22 | 只看该作者
感谢分享~~~~~~~~~~~~
16#
发表于 2018-1-15 21:26 | 只看该作者
啥也不说了,007 皇家赌场:感谢楼主在hao4k分享4k视频内容哇!
17#
发表于 2018-1-15 21:45 | 只看该作者
真是太好了
18#
 楼主| 发表于 2018-1-15 22:05 | 只看该作者

你下载试试
您需要登录后才可以回帖 登录 | 立即注册

本版积分规则

返回顶部 联系我们