你所知道的4K资源这里全部都有 4K电影 | 4K视频 | 4K壁纸 | 4K MV 怎么播放4K视频 | 4K电视演示片▼

教你玩转4K私人与家庭影院存储 NAS组装 | 黑群辉 家庭/影院Nas论坛

4K家庭影院信号源与视频设备知识 4K蓝光高清播放机 - 那个品牌好? 4K投影机论坛 | 4K电视机论坛

手把手教你搭建属于自己的家庭影院 4K家庭影院案例 | 家庭影院音频 4K家庭影院论坛

跳转到指定楼层
楼主
发表于 2018-3-1 20:46 | 只看该作者 回帖奖励 |倒序浏览 |阅读模式

片  名:古墓丽影4k [下载地址在帖子底部]

  • 年  代:00年代  
  • 国  家:美国 
  • 类  别:动作 冒险 
  • 字  幕:英文原版
  • 上映日期:2001-06-15
  • 文件格式:mkv   
  • 视频效果:4K(3840x2160)    
  • 文件大小:54.73GB
  • 片  长:100分钟
  • 导  演:西蒙·韦斯特
  • 豆瓣链接:http://www.tuudc.com.cn//subject/1293173/
  • 主  演:安吉丽娜·朱莉 / 强·沃特 / 伊恩·格雷 / 诺亚·泰勒 / 丹尼尔·克雷格 / 理查德·约翰逊 / 克里斯·巴里 / 朱利安·林希德-图特 / 莱斯利·菲利普斯

剧情简介

 20年前罗拉(安吉丽娜•朱莉 饰)的父亲(乔恩•沃伊特 饰)挖掘古墓得到的一个箱里收藏了一个神秘的钟。罗拉从父亲那里知道,这个钟被一个神秘的组织有关。这个叫光明会的组织相信当他们找到这个古钟后便是把时间与空间打开的钥匙,一把三角形的金属钥匙,多年来组织一直苦苦寻觅。
  光明会希望通过这把钥匙让他们的组织始祖复活,但首先要找到钥匙。而且时间紧迫,两天后将出现日全蚀的景观,这个时候的三角内在的力量便会到达最大,光明会的不想错过这个大好机会。罗拉扛上了这个艰巨的任务,在重重困难中寻找拯救宇宙的三角。


古墓奇兵 / 盗墓者罗拉/ 古墓丽影4k Lara.Croft.Tomb.Raider.2001.2160p.BluRay.HEVC.DTS-HD.MA.5.1 4K  UHD蓝光原盘电影信息

第303部 4K UHD 蓝光原盘破解版,含完整的 BDMV 文件夹以及数据,AACS 2.0 协议已被完整破解
DISC INFO:

Disc Title:     Lara.Croft.Tomb.Raider.2001.2160p.BluRay.HEVC.DTS-HD.MA.5.1-COASTER
Disc Size:      58,761,262,793 bytes
Protection:     AACS2
BD-Java:        Yes
Extras:         Ultra HD
BDInfo:         0.5.8.7 (compatible layout created by DVDFab 10.0.7.9)

PLAYLIST REPORT:

Name:                   00222.MPLS  
Length:                 1:40:31.859 (h:m:s.ms)
Size:                   58,318,184,448 bytes
Total Bitrate:          77.35 Mbps

(*) Indicates included stream hidden by this playlist.

VIDEO:

Codec                   Bitrate             Description     
-----                   -------             -----------     
MPEG-H HEVC Video       56553 kbps          2160p / 23.976 fps / 16:9 / Main 10 Profile 5.1 High / 4:2:0 / 10 bits / HDR / BT.2020 /
* MPEG-H HEVC Video     7627 kbps           1080p / 23.976 fps / 16:9 / Main 10 Profile 5.1 High / 4:2:0 / 10 bits / Dolby Vision / BT.2020 /

AUDIO:

Codec                           Language        Bitrate         Description     
-----                           --------        -------         -----------     
DTS-HD Master Audio             English         4044 kbps       5.1 / 48 kHz / 4044 kbps / 24-bit (DTS Core: 5.1 / 48 kHz / 1509 kbps / 24-bit)
Dolby Digital Audio             English         640 kbps        5.1 / 48 kHz / 640 kbps
Dolby Digital Audio             Spanish         640 kbps        5.1 / 48 kHz / 640 kbps
Dolby Digital Audio             Spanish         640 kbps        5.1 / 48 kHz / 640 kbps
Dolby Digital Audio             French          640 kbps        5.1 / 48 kHz / 640 kbps
Dolby Digital Audio             French          640 kbps        5.1 / 48 kHz / 640 kbps
Dolby Digital Audio             Portuguese      640 kbps        5.1 / 48 kHz / 640 kbps
Dolby Digital Audio             Russian         640 kbps        5.1 / 48 kHz / 640 kbps
Dolby Digital Audio             English         192 kbps        2.0 / 48 kHz / 192 kbps / Dolby Surround

SUBTITLES:

Codec                           Language        Bitrate         Description     
-----                           --------        -------         -----------     
Presentation Graphics           English         16.831 kbps                     
Presentation Graphics           English         18.422 kbps                     
Presentation Graphics           Chinese         11.89 kbps                     
Presentation Graphics           Danish          15.26 kbps                     
Presentation Graphics           Spanish         17.473 kbps                     
Presentation Graphics           Spanish         16.961 kbps                     
Presentation Graphics           French          14.638 kbps                     
Presentation Graphics           French          14.543 kbps                     
Presentation Graphics           Dutch           13.519 kbps                     
Presentation Graphics           Norwegian       13.901 kbps                     
Presentation Graphics           Portuguese      16.076 kbps                     
Presentation Graphics           Russian         16.853 kbps                     
Presentation Graphics           Chinese         11.809 kbps                     
Presentation Graphics           Finnish         15.002 kbps                     
Presentation Graphics           Swedish         15.326 kbps                     
Presentation Graphics           English         45.081 kbps                     
Presentation Graphics           Spanish         37.87 kbps                     
Presentation Graphics           Spanish         40.128 kbps                     
Presentation Graphics           French          43.203 kbps                     
Presentation Graphics           French          38.361 kbps                     
Presentation Graphics           Portuguese      44.768 kbps   
REMUX
Video #1
ID                                       : 1
Format                                   : HEVC
Format/Info                              : High Efficiency Video Coding
Format profile                           : Main 10@L5.1@High
Codec ID                                 : V_MPEGH/ISO/HEVC
Duration                                 : 1 h 40 min
Bit rate                                 : 56.6 Mb/s
Width                                    : 3 840 pixels
Height                                   : 2 160 pixels
Display aspect ratio                     : 16:9
Frame rate mode                          : Constant
Frame rate                               : 23.976 (24000/1001) FPS
Color space                              : YUV
Chroma subsampling                       : 4:2:0 (Type 2)
Bit depth                                : 10 bits
Bits/(Pixel*Frame)                       : 0.284
Stream size                              : 39.7 GiB (77%)
Title                                    : Lara.Croft.Tomb.Raider.2001.2160p.BluRay.REMUX.HEVC.DTS-HD.MA.5.1-FGT
Default                                  : Yes
Forced                                   : No
Color range                              : Limited
Color primaries                          : BT.2020
Transfer characteristics                 : PQ
Matrix coefficients                      : BT.2020 non-constant
Mastering display color primaries        : Display P3
Mastering display luminance              : min: 0.0050 cd/m2, max: 1000 cd/m2
Maximum Content Light Level              : 1000 cd/m2
Maximum Frame-Average Light Level        : 603 cd/m2

Video #2
ID                                       : 2
Format                                   : HEVC
Format/Info                              : High Efficiency Video Coding
Format profile                           : Main 10@L5.1@High
Codec ID                                 : V_MPEGH/ISO/HEVC
Duration                                 : 1 h 40 min
Bit rate                                 : 7 628 kb/s
Width                                    : 1 920 pixels
Height                                   : 1 080 pixels
Display aspect ratio                     : 16:9
Frame rate mode                          : Constant
Frame rate                               : 23.976 (24000/1001) FPS
Color space                              : YUV
Chroma subsampling                       : 4:2:0 (Type 2)
Bit depth                                : 10 bits
Bits/(Pixel*Frame)                       : 0.153
Stream size                              : 5.36 GiB (10%)
Title                                    : Lara.Croft.Tomb.Raider.2001.2160p.BluRay.REMUX.HEVC.DTS-HD.MA.5.1-FGT
Default                                  : No
Forced                                   : No
Color range                              : Limited
Color primaries                          : BT.2020
Transfer characteristics                 : PQ
Matrix coefficients                      : BT.2020 non-constant
Mastering display color primaries        : Display P3
Mastering display luminance              : min: 0.0050 cd/m2, max: 1000 cd/m2

Audio #1
ID                                       : 3
Format                                   : DTS
Format/Info                              : Digital Theater Systems
Format profile                           : MA / Core
Codec ID                                 : A_DTS
Duration                                 : 1 h 40 min
Bit rate mode                            : Variable / Constant
Bit rate                                 : 4 044 kb/s / 1 509 kb/s
Channel(s)                               : 6 channels
Channel positions                        : Front: L C R, Side: L R, LFE
Sampling rate                            : 48.0 kHz
Frame rate                               : 93.750 FPS (512 SPF)
Bit depth                                : 24 bits
Compression mode                         : Lossless / Lossy
Stream size                              : 2.84 GiB (6%)
Title                                    : Lara.Croft.Tomb.Raider.2001.2160p.BluRay.REMUX.HEVC.DTS-HD.MA.5.1-FGT
Language                                 : English
Default                                  : Yes
Forced                                   : No

Audio #2
ID                                       : 4
Format                                   : AC-3
Format/Info                              : Audio Coding 3
Codec ID                                 : A_AC3
Duration                                 : 1 h 40 min
Bit rate mode                            : Constant
Bit rate                                 : 640 kb/s
Channel(s)                               : 6 channels
Channel positions                        : Front: L C R, Side: L R, LFE
Sampling rate                            : 48.0 kHz
Frame rate                               : 31.250 FPS (1536 SPF)
Bit depth                                : 16 bits
Compression mode                         : Lossy
Delay relative to video                  : 23 ms
Stream size                              : 460 MiB (1%)
Title                                    : Lara.Croft.Tomb.Raider.2001.2160p.BluRay.REMUX.HEVC.DTS-HD.MA.5.1-FGT
Language                                 : English
Service kind                             : Complete Main
Default                                  : No
Forced                                   : No

Audio #3
ID                                       : 5
Format                                   : AC-3
Format/Info                              : Audio Coding 3
Codec ID                                 : A_AC3
Duration                                 : 1 h 40 min
Bit rate mode                            : Constant
Bit rate                                 : 640 kb/s
Channel(s)                               : 6 channels
Channel positions                        : Front: L C R, Side: L R, LFE
Sampling rate                            : 48.0 kHz
Frame rate                               : 31.250 FPS (1536 SPF)
Bit depth                                : 16 bits
Compression mode                         : Lossy
Delay relative to video                  : 501 ms
Stream size                              : 460 MiB (1%)
Title                                    : Lara.Croft.Tomb.Raider.2001.2160p.BluRay.REMUX.HEVC.DTS-HD.MA.5.1-FGT
Language                                 : Spanish
Service kind                             : Complete Main
Default                                  : No
Forced                                   : No

Audio #4
ID                                       : 6
Format                                   : AC-3
Format/Info                              : Audio Coding 3
Codec ID                                 : A_AC3
Duration                                 : 1 h 40 min
Bit rate mode                            : Constant
Bit rate                                 : 640 kb/s
Channel(s)                               : 6 channels
Channel positions                        : Front: L C R, Side: L R, LFE
Sampling rate                            : 48.0 kHz
Frame rate                               : 31.250 FPS (1536 SPF)
Bit depth                                : 16 bits
Compression mode                         : Lossy
Delay relative to video                  : 375 ms
Stream size                              : 460 MiB (1%)
Title                                    : Lara.Croft.Tomb.Raider.2001.2160p.BluRay.REMUX.HEVC.DTS-HD.MA.5.1-FGT
Language                                 : Spanish
Service kind                             : Complete Main
Default                                  : No
Forced                                   : No

Audio #5
ID                                       : 7
Format                                   : AC-3
Format/Info                              : Audio Coding 3
Codec ID                                 : A_AC3
Duration                                 : 1 h 40 min
Bit rate mode                            : Constant
Bit rate                                 : 640 kb/s
Channel(s)                               : 6 channels
Channel positions                        : Front: L C R, Side: L R, LFE
Sampling rate                            : 48.0 kHz
Frame rate                               : 31.250 FPS (1536 SPF)
Bit depth                                : 16 bits
Compression mode                         : Lossy
Delay relative to video                  : 459 ms
Stream size                              : 460 MiB (1%)
Title                                    : Lara.Croft.Tomb.Raider.2001.2160p.BluRay.REMUX.HEVC.DTS-HD.MA.5.1-FGT
Language                                 : French
Service kind                             : Complete Main
Default                                  : No
Forced                                   : No

Audio #6
ID                                       : 8
Format                                   : AC-3
Format/Info                              : Audio Coding 3
Codec ID                                 : A_AC3
Duration                                 : 1 h 40 min
Bit rate mode                            : Constant
Bit rate                                 : 640 kb/s
Channel(s)                               : 6 channels
Channel positions                        : Front: L C R, Side: L R, LFE
Sampling rate                            : 48.0 kHz
Frame rate                               : 31.250 FPS (1536 SPF)
Bit depth                                : 16 bits
Compression mode                         : Lossy
Delay relative to video                  : 459 ms
Stream size                              : 460 MiB (1%)
Title                                    : Lara.Croft.Tomb.Raider.2001.2160p.BluRay.REMUX.HEVC.DTS-HD.MA.5.1-FGT
Language                                 : French
Service kind                             : Complete Main
Default                                  : No
Forced                                   : No

Audio #7
ID                                       : 9
Format                                   : AC-3
Format/Info                              : Audio Coding 3
Codec ID                                 : A_AC3
Duration                                 : 1 h 40 min
Bit rate mode                            : Constant
Bit rate                                 : 640 kb/s
Channel(s)                               : 6 channels
Channel positions                        : Front: L C R, Side: L R, LFE
Sampling rate                            : 48.0 kHz
Frame rate                               : 31.250 FPS (1536 SPF)
Bit depth                                : 16 bits
Compression mode                         : Lossy
Delay relative to video                  : 23 ms
Stream size                              : 460 MiB (1%)
Title                                    : Lara.Croft.Tomb.Raider.2001.2160p.BluRay.REMUX.HEVC.DTS-HD.MA.5.1-FGT
Language                                 : Portuguese
Service kind                             : Complete Main
Default                                  : No
Forced                                   : No

Audio #8
ID                                       : 10
Format                                   : AC-3
Format/Info                              : Audio Coding 3
Codec ID                                 : A_AC3
Duration                                 : 1 h 40 min
Bit rate mode                            : Constant
Bit rate                                 : 640 kb/s
Channel(s)                               : 6 channels
Channel positions                        : Front: L C R, Side: L R, LFE
Sampling rate                            : 48.0 kHz
Frame rate                               : 31.250 FPS (1536 SPF)
Bit depth                                : 16 bits
Compression mode                         : Lossy
Delay relative to video                  : 23 ms
Stream size                              : 460 MiB (1%)
Title                                    : Lara.Croft.Tomb.Raider.2001.2160p.BluRay.REMUX.HEVC.DTS-HD.MA.5.1-FGT
Language                                 : Russian
Service kind                             : Complete Main
Default                                  : No
Forced                                   : No

Audio #9
ID                                       : 11
Format                                   : AC-3
Format/Info                              : Audio Coding 3
Codec ID                                 : A_AC3
Duration                                 : 1 h 40 min
Bit rate mode                            : Constant
Bit rate                                 : 192 kb/s
Channel(s)                               : 2 channels
Channel positions                        : Front: L R
Sampling rate                            : 48.0 kHz
Frame rate                               : 31.250 FPS (1536 SPF)
Bit depth                                : 16 bits
Compression mode                         : Lossy
Delay relative to video                  : 334 ms
Stream size                              : 138 MiB (0%)
Title                                    : Lara.Croft.Tomb.Raider.2001.2160p.BluRay.REMUX.HEVC.DTS-HD.MA.5.1-FGT
Language                                 : English
Service kind                             : Complete Main
Default                                  : No
Forced                                   : No

Text #1
ID                                       : 12
Format                                   : PGS
Muxing mode                              : zlib
Codec ID                                 : S_HDMV/PGS
Codec ID/Info                            : Picture based subtitle format used on BDs/HD-DVDs
Duration                                 : 1 h 27 min
Bit rate                                 : 19.4 kb/s
Count of elements                        : 1269
Stream size                              : 12.1 MiB (0%)
Title                                    : English-PGS
Language                                 : English
Default                                  : Yes
Forced                                   : No

Text #2
ID                                       : 13
Format                                   : PGS
Muxing mode                              : zlib
Codec ID                                 : S_HDMV/PGS
Codec ID/Info                            : Picture based subtitle format used on BDs/HD-DVDs
Duration                                 : 1 h 30 min
Bit rate                                 : 20.5 kb/s
Count of elements                        : 1423
Stream size                              : 13.2 MiB (0%)
Title                                    : English-SDH-PGS
Language                                 : English
Default                                  : No
Forced                                   : No

Text #3
ID                                       : 14
Format                                   : PGS
Muxing mode                              : zlib
Codec ID                                 : S_HDMV/PGS
Codec ID/Info                            : Picture based subtitle format used on BDs/HD-DVDs
Duration                                 : 1 h 39 min
Bit rate                                 : 12.0 kb/s
Count of elements                        : 1413
Stream size                              : 8.55 MiB (0%)
Title                                    : Chinese-PGS
Language                                 : Chinese
Default                                  : No
Forced                                   : No

Text #4
ID                                       : 15
Format                                   : PGS
Muxing mode                              : zlib
Codec ID                                 : S_HDMV/PGS
Codec ID/Info                            : Picture based subtitle format used on BDs/HD-DVDs
Duration                                 : 1 h 35 min
Bit rate                                 : 16.0 kb/s
Count of elements                        : 1066
Stream size                              : 11.0 MiB (0%)
Title                                    : Danish-PGS
Language                                 : Danish
Default                                  : No
Forced                                   : No

Text #5
ID                                       : 16
Format                                   : PGS
Muxing mode                              : zlib
Codec ID                                 : S_HDMV/PGS
Codec ID/Info                            : Picture based subtitle format used on BDs/HD-DVDs
Duration                                 : 1 h 35 min
Bit rate                                 : 18.4 kb/s
Count of elements                        : 1095
Stream size                              : 12.6 MiB (0%)
Title                                    : Spanish-PGS
Language                                 : Spanish
Default                                  : No
Forced                                   : No

Text #6
ID                                       : 17
Format                                   : PGS
Muxing mode                              : zlib
Codec ID                                 : S_HDMV/PGS
Codec ID/Info                            : Picture based subtitle format used on BDs/HD-DVDs
Duration                                 : 1 h 35 min
Bit rate                                 : 17.8 kb/s
Count of elements                        : 1298
Stream size                              : 12.2 MiB (0%)
Title                                    : Spanish-PGS
Language                                 : Spanish
Default                                  : No
Forced                                   : No

Text #7
ID                                       : 18
Format                                   : PGS
Muxing mode                              : zlib
Codec ID                                 : S_HDMV/PGS
Codec ID/Info                            : Picture based subtitle format used on BDs/HD-DVDs
Duration                                 : 1 h 35 min
Bit rate                                 : 15.4 kb/s
Count of elements                        : 1222
Stream size                              : 10.5 MiB (0%)
Title                                    : French-PGS
Language                                 : French
Default                                  : No
Forced                                   : No

Text #8
ID                                       : 19
Format                                   : PGS
Muxing mode                              : zlib
Codec ID                                 : S_HDMV/PGS
Codec ID/Info                            : Picture based subtitle format used on BDs/HD-DVDs
Duration                                 : 1 h 35 min
Bit rate                                 : 15.3 kb/s
Count of elements                        : 1231
Stream size                              : 10.5 MiB (0%)
Title                                    : French-PGS
Language                                 : French
Default                                  : No
Forced                                   : No

Text #9
ID                                       : 20
Format                                   : PGS
Muxing mode                              : zlib
Codec ID                                 : S_HDMV/PGS
Codec ID/Info                            : Picture based subtitle format used on BDs/HD-DVDs
Duration                                 : 1 h 35 min
Bit rate                                 : 14.2 kb/s
Count of elements                        : 897
Stream size                              : 9.72 MiB (0%)
Title                                    : Dutch-PGS
Language                                 : Dutch
Default                                  : No
Forced                                   : No

Text #10
ID                                       : 21
Format                                   : PGS
Muxing mode                              : zlib
Codec ID                                 : S_HDMV/PGS
Codec ID/Info                            : Picture based subtitle format used on BDs/HD-DVDs
Duration                                 : 1 h 35 min
Bit rate                                 : 14.6 kb/s
Count of elements                        : 1075
Stream size                              : 10.00 MiB (0%)
Title                                    : Norwegian-PGS
Language                                 : Norwegian
Default                                  : No
Forced                                   : No

Text #11
ID                                       : 22
Format                                   : PGS
Muxing mode                              : zlib
Codec ID                                 : S_HDMV/PGS
Codec ID/Info                            : Picture based subtitle format used on BDs/HD-DVDs
Duration                                 : 1 h 35 min
Bit rate                                 : 16.9 kb/s
Count of elements                        : 1264
Stream size                              : 11.6 MiB (0%)
Title                                    : Portuguese-PGS
Language                                 : Portuguese
Default                                  : No
Forced                                   : No

Text #12
ID                                       : 23
Format                                   : PGS
Muxing mode                              : zlib
Codec ID                                 : S_HDMV/PGS
Codec ID/Info                            : Picture based subtitle format used on BDs/HD-DVDs
Duration                                 : 1 h 35 min
Bit rate                                 : 17.7 kb/s
Count of elements                        : 1274
Stream size                              : 12.1 MiB (0%)
Title                                    : Russian-PGS
Language                                 : Russian
Default                                  : No
Forced                                   : No

Text #13
ID                                       : 24
Format                                   : PGS
Muxing mode                              : zlib
Codec ID                                 : S_HDMV/PGS
Codec ID/Info                            : Picture based subtitle format used on BDs/HD-DVDs
Duration                                 : 1 h 39 min
Bit rate                                 : 11.9 kb/s
Count of elements                        : 1344
Stream size                              : 8.49 MiB (0%)
Title                                    : Chinese-PGS
Language                                 : Chinese
Default                                  : No
Forced                                   : No

Text #14
ID                                       : 25
Format                                   : PGS
Muxing mode                              : zlib
Codec ID                                 : S_HDMV/PGS
Codec ID/Info                            : Picture based subtitle format used on BDs/HD-DVDs
Duration                                 : 1 h 35 min
Bit rate                                 : 15.8 kb/s
Count of elements                        : 1080
Stream size                              : 10.8 MiB (0%)
Title                                    : Finnish-PGS
Language                                 : Finnish
Default                                  : No
Forced                                   : No

Text #15
ID                                       : 26
Format                                   : PGS
Muxing mode                              : zlib
Codec ID                                 : S_HDMV/PGS
Codec ID/Info                            : Picture based subtitle format used on BDs/HD-DVDs
Duration                                 : 1 h 35 min
Bit rate                                 : 16.1 kb/s
Count of elements                        : 1037
Stream size                              : 11.0 MiB (0%)
Title                                    : Swedish-PGS
Language                                 : Swedish
Default                                  : No
Forced                                   : No

Text #16
ID                                       : 27
Format                                   : PGS
Muxing mode                              : zlib
Codec ID                                 : S_HDMV/PGS
Codec ID/Info                            : Picture based subtitle format used on BDs/HD-DVDs
Duration                                 : 1 h 39 min
Bit rate                                 : 45.6 kb/s
Count of elements                        : 2133
Stream size                              : 32.4 MiB (0%)
Title                                    : English-COMMENTARY-PGS
Language                                 : English
Default                                  : No
Forced                                   : No

Text #17
ID                                       : 28
Format                                   : PGS
Muxing mode                              : zlib
Codec ID                                 : S_HDMV/PGS
Codec ID/Info                            : Picture based subtitle format used on BDs/HD-DVDs
Duration                                 : 1 h 39 min
Bit rate                                 : 38.3 kb/s
Count of elements                        : 1791
Stream size                              : 27.2 MiB (0%)
Title                                    : Spanish-COMMENTARY-PGS
Language                                 : Spanish
Default                                  : No
Forced                                   : No

Text #18
ID                                       : 29
Format                                   : PGS
Muxing mode                              : zlib
Codec ID                                 : S_HDMV/PGS
Codec ID/Info                            : Picture based subtitle format used on BDs/HD-DVDs
Duration                                 : 1 h 39 min
Bit rate                                 : 40.6 kb/s
Count of elements                        : 2133
Stream size                              : 28.9 MiB (0%)
Title                                    : Spanish-COMMENTARY-PGS
Language                                 : Spanish
Default                                  : No
Forced                                   : No

Text #19
ID                                       : 30
Format                                   : PGS
Muxing mode                              : zlib
Codec ID                                 : S_HDMV/PGS
Codec ID/Info                            : Picture based subtitle format used on BDs/HD-DVDs
Duration                                 : 1 h 39 min
Bit rate                                 : 43.7 kb/s
Count of elements                        : 2133
Stream size                              : 31.1 MiB (0%)
Title                                    : French-COMMENTARY-PGS
Language                                 : French
Default                                  : No
Forced                                   : No

Text #20
ID                                       : 31
Format                                   : PGS
Muxing mode                              : zlib
Codec ID                                 : S_HDMV/PGS
Codec ID/Info                            : Picture based subtitle format used on BDs/HD-DVDs
Duration                                 : 1 h 39 min
Bit rate                                 : 38.8 kb/s
Count of elements                        : 1967
Stream size                              : 27.6 MiB (0%)
Title                                    : French-COMMENTARY-PGS
Language                                 : French
Default                                  : No
Forced                                   : No

Text #21
ID                                       : 32
Format                                   : PGS
Muxing mode                              : zlib
Codec ID                                 : S_HDMV/PGS
Codec ID/Info                            : Picture based subtitle format used on BDs/HD-DVDs
Duration                                 : 1 h 39 min
Bit rate                                 : 45.3 kb/s
Count of elements                        : 2133
Stream size                              : 32.2 MiB (0%)
Title                                    : Portuguese-COMMENTARY-PGS
Language                                 : Portuguese
Default                                  : No
Forced                                   : No

Menu
00:00:00.000                             : en:Chapter 1
00:07:22.859                             : en:Chapter 2
00:15:04.403                             : en:Chapter 3
00:23:16.395                             : en:Chapter 4
00:34:45.708                             : en:Chapter 5
00:43:10.588                             : en:Chapter 6
00:50:03.875                             : en:Chapter 7
00:59:46.165                             : en:Chapter 8
01:07:53.694                             : en:Chapter 9
01:15:58.887                             : en:Chapter 10
01:22:32.322                             : en:Chapter 11
01:31:22.852                             : en:Chapter 12

古墓奇兵 / 盗墓者罗拉/ 古墓丽影4k Lara.Croft.Tomb.Raider.2001.2160p.BluRay.HEVC.DTS-HD.MA.5.1 4K  UHD蓝光原盘电影下载

古墓丽影4k Lara.Croft.Tomb.Raider.2001.2160p.BluRay.HEVC.DTS-HD.MA.5.1-COASTER (4K UHD 蓝光蓝光破解版 2160p 54.73GB )
游客,如果您要查看本帖隐藏内容请回复

古墓丽影4k Lara.Croft.Tomb.Raider.2001.2160p.BluRay.REMUX.HEVC.DTS-HD.MA.5.1-FGT (4K UHD 蓝光蓝光破解版 2160p 51.29GB )
游客,如果您要查看本帖隐藏内容请回复


 
沙发
发表于 2018-3-1 20:58 | 只看该作者
感谢hao4k这个网站提供这么多4K视频资源,太棒了!
板凳
发表于 2018-3-1 21:12 | 只看该作者
地板
发表于 2018-3-1 21:14 | 只看该作者
支持hao4k发展,支持楼主在Hao4k发布4K视频资源。
5#
发表于 2018-3-1 21:28 | 只看该作者
感谢hao4k这个网站提供这么多4K视频资源,太棒了!
6#
发表于 2018-3-1 21:31 | 只看该作者
感谢hao4k这个网站提供这么多4K视频资源,太棒了!
7#
发表于 2018-3-1 21:34 | 只看该作者
感谢hao4k这个网站提供这么多4K视频资源,太棒了!
8#
发表于 2018-3-1 21:47 | 只看该作者
支持hao4k发展,支持楼主在Hao4k发布4K视频资源。
9#
发表于 2018-3-1 21:50 | 只看该作者
感谢hao4k这个网站提供这么多4K视频资源,太棒了!
10#
发表于 2018-3-1 21:54 | 只看该作者
感谢hao4k这个网站提供这么多4K视频资源,007 皇家赌场:太棒了!
11#
发表于 2018-3-1 22:19 | 只看该作者
感谢hao4k这个网站提供这么多4K视频资源,太棒了!
12#
发表于 2018-3-1 22:24 | 只看该作者
谢谢分享好资源
13#
发表于 2018-3-1 22:31 | 只看该作者
真是太好了
14#
发表于 2018-3-1 22:34 | 只看该作者
谢谢分享
15#
发表于 2018-3-1 22:49 | 只看该作者
感谢hao4k这个网站提供这么多4K视频资源,太棒了!
16#
发表于 2018-3-1 23:21 | 只看该作者
谢谢分享好资源
17#
发表于 2018-3-1 23:23 | 只看该作者
感谢hao4k这个网站提供这么多4K视频资源,太棒了!
18#
发表于 2018-3-1 23:24 | 只看该作者
very fast sharing, support you always
您需要登录后才可以回帖 登录 | 立即注册

本版积分规则

返回顶部 联系我们
陕西2018高考直播现场 11选5 杀号公式 广东36选7走势图 山东十一选五最新预测 11选5杀号精准公式99
新疆35选7的开奖号 十一选五杀号公式 快三和值技巧选号口诀 白小姐中特玄机彩图 乐透啦提现多久到
广东好彩1预测 广东11选5开奖记录 湖北快3app下载 河北体彩十一选五 平码三中三公式规律
003数码龙杀肖尾码头统计 香港赛马会娱乐城老虎机打不开 11选5前一自创方法 去新疆旅游要多少钱 河北快三app下载