你所知道的4K资源这里全部都有 4K电影 | 4K视频 | 4K壁纸 | 4K MV 怎么播放4K视频 | 4K电视演示片▼

教你玩转4K私人与家庭影院存储 NAS组装 | 黑群辉 家庭/影院Nas论坛

4K家庭影院信号源与视频设备知识 4K蓝光高清播放机 - 那个品牌好? 4K投影机论坛 | 4K电视机论坛

手把手教你搭建属于自己的家庭影院 4K家庭影院案例 | 家庭影院音频 4K家庭影院论坛

跳转到指定楼层
楼主
发表于 2018-3-9 08:23 | 只看该作者 |只看大图 回帖奖励 |倒序浏览 |阅读模式

片  名:水形物语4K [下载地址在帖子底部]

  • 年  代:2017  
  • 国  家:美国 
  • 类  别:剧情 奇幻 爱情 
  • 字  幕:英文原版
  • 上映日期:2017-12-01
  • 文件格式:mkv   
  • 视频效果:4K(3840x2160)    
  • 文件大小:57.31GB
  • 片  长:123分钟
  • 导  演:吉尔莫·德尔·托罗
  • 豆瓣链接:http://www.tuudc.com.cn//subject/26752852/
  • 主  演:莎莉·霍金斯 / 道格·琼斯 / 迈克尔·珊农 / 理查德·詹金斯 / 奥克塔维亚·斯宾瑟 / 迈克尔·斯图巴 / 大卫·休莱特 / 尼克·西塞 / 斯图尔特·阿诺特 / 尼格尔·本内特 / 劳伦·李·史密斯 / 马丁·罗奇 / 阿莱格拉·富尔顿 / 约翰·卡普洛斯 / 摩根·凯利 / 马文·凯伊 / 德鲁·维尔戈维尔

剧情简介

  故事发生在1963年,时值冷战期间,哑女艾丽莎(莎莉·霍金斯 Sally Hawkins 饰)在政府实验室里工作,是那里的一名清洁女工。年幼时,一场大病夺走了艾丽莎的声音,之后一直至今,她都在沉默之中过着形单影只的生活,全部的朋友就只有画家老头(尼克·西塞 Nick S earcy 饰)和同事塞尔达(奥克塔维亚·斯宾瑟 Octavia Spencer 饰)。
  一天,实验室里拉响了高度戒备的警报,一个神秘的装满了水的罐子被送了进来,艾丽莎震惊的发现,罐子里关着一个半人半鱼的怪异生物。在理查德(迈克尔·珊农 Michael Shannon 饰)的带领下,科学家团队想要在这怪物身上提炼出能够制造生物武器的物质,可是在艾丽莎眼中,它不过是一个和自己一样的孤独的生命体。随着时间的推移,艾尔莎和怪物之间竟然产生了感情。



忘形水(港) / 水底情深(台) / 水形奇缘 / 水之形 / 水的形状 / 水无常形 / 水形物语4K The.Shape.of.Water.2017.2160p.BluRay.HEVC.DTS-HD.MA.5.1 4K  UHD蓝光原盘电影信息

第310部4K UHD 蓝光原盘破解版,含完整的 BDMV 文件夹以及数据,AACS 2.0 协议已被完整破解
DISC INFO:

Disc Title:     The.Shape.of.Water.2017.2160p.BluRay.HEVC.DTS-HD.MA.5.1-COASTER
Disc Size:      61,536,361,031 bytes
Protection:     AACS2
BD-Java:        Yes
Extras:         Ultra HD
BDInfo:         0.5.8.7 (compatible layout created by DVDFab 10.0.8.4)

PLAYLIST REPORT:

Name:                   00700.MPLS  
Length:                 2:03:19.433 (h:m:s.ms)
Size:                   60,165,709,824 bytes
Total Bitrate:          65.05 Mbps

VIDEO:

Codec                   Bitrate             Description     
-----                   -------             -----------     
MPEG-H HEVC Video       51849 kbps          2160p / 23.976 fps / 16:9 / Main 10 Profile 5.1 High / 4:2:0 / 10 bits / HDR / BT.2020 /

AUDIO:

Codec                           Language        Bitrate         Description     
-----                           --------        -------         -----------     
DTS-HD Master Audio             English         3831 kbps       5.1 / 48 kHz / 3831 kbps / 24-bit (DTS Core: 5.1 / 48 kHz / 1509 kbps / 24-bit)
Dolby Digital Audio             English         448 kbps        5.1 / 48 kHz / 448 kbps
Dolby Digital Audio             Spanish         448 kbps        5.1 / 48 kHz / 448 kbps
DTS Audio                       French          768 kbps        5.1 / 48 kHz / 768 kbps / 24-bit
DTS Audio                       Spanish         768 kbps        5.1 / 48 kHz / 768 kbps / 24-bit
DTS Audio                       German          768 kbps        5.1 / 48 kHz / 768 kbps / 24-bit
DTS Audio                       Italian         768 kbps        5.1 / 48 kHz / 768 kbps / 24-bit
Dolby Digital Audio             Czech           448 kbps        5.1 / 48 kHz / 448 kbps
Dolby Digital Audio             Polish          448 kbps        5.1 / 48 kHz / 448 kbps
DTS Audio                       Japanese        768 kbps        5.1 / 48 kHz / 768 kbps / 24-bit

SUBTITLES:

Codec                           Language        Bitrate         Description     
-----                           --------        -------         -----------     
Presentation Graphics           English         1.071 kbps                     
Presentation Graphics           English         21.683 kbps                     
Presentation Graphics           Spanish         15.539 kbps                     
Presentation Graphics           Spanish         14.52 kbps                     
Presentation Graphics           Danish          25.257 kbps                     
Presentation Graphics           Dutch           22.383 kbps                     
Presentation Graphics           Finnish         24.521 kbps                     
Presentation Graphics           German          16.005 kbps                     
Presentation Graphics           Italian         15.024 kbps                     
Presentation Graphics           Norwegian       26.065 kbps                     
Presentation Graphics           Swedish         24.954 kbps                     
Presentation Graphics           Chinese         20.428 kbps                     
Presentation Graphics           Czech           25.231 kbps                     
Presentation Graphics           Chinese         20.388 kbps                     
Presentation Graphics           Polish          20.391 kbps                     
Presentation Graphics           Japanese        16.459 kbps                     
Presentation Graphics           Japanese        2.344 kbps                     
Presentation Graphics           French          13.356 kbps                     
Presentation Graphics           Spanish         1.448 kbps                     
Presentation Graphics           French          1.53 kbps                       
Presentation Graphics           Spanish         1.446 kbps                     
Presentation Graphics           German          1.557 kbps                     
Presentation Graphics           Italian         1.348 kbps     
REMUX
Video
ID                                       : 1
Format                                   : HEVC
Format/Info                              : High Efficiency Video Coding
Format profile                           : Main 10@L5.1@High
Codec ID                                 : V_MPEGH/ISO/HEVC
Duration                                 : 2 h 3 min
Bit rate                                 : 51.8 Mb/s
Width                                    : 3 840 pixels
Height                                   : 2 160 pixels
Display aspect ratio                     : 16:9
Frame rate mode                          : Constant
Frame rate                               : 23.976 (24000/1001) FPS
Color space                              : YUV
Chroma subsampling                       : 4:2:0 (Type 2)
Bit depth                                : 10 bits
Bits/(Pixel*Frame)                       : 0.261
Stream size                              : 44.7 GiB (84%)
Title                                    : The.Shape.of.Water.2017.2160p.BluRay.REMUX.HEVC.DTS-HD.MA.5.1-FGT
Default                                  : Yes
Forced                                   : No
Color range                              : Limited
Color primaries                          : BT.2020
Transfer characteristics                 : PQ
Matrix coefficients                      : BT.2020 non-constant
Mastering display color primaries        : Display P3
Mastering display luminance              : min: 0.0050 cd/m2, max: 1000 cd/m2

Audio #1
ID                                       : 2
Format                                   : DTS
Format/Info                              : Digital Theater Systems
Format profile                           : MA / Core
Codec ID                                 : A_DTS
Duration                                 : 2 h 3 min
Bit rate mode                            : Variable / Constant
Bit rate                                 : 3 840 kb/s / 1 509 kb/s
Channel(s)                               : 6 channels
Channel positions                        : Front: L C R, Side: L R, LFE
Sampling rate                            : 48.0 kHz
Frame rate                               : 93.750 FPS (512 SPF)
Bit depth                                : 24 bits
Compression mode                         : Lossless / Lossy
Stream size                              : 3.30 GiB (6%)
Title                                    : The.Shape.of.Water.2017.2160p.BluRay.REMUX.HEVC.DTS-HD.MA.5.1-FGT
Language                                 : English
Default                                  : Yes
Forced                                   : No

Audio #2
ID                                       : 3
Format                                   : AC-3
Format/Info                              : Audio Coding 3
Codec ID                                 : A_AC3
Duration                                 : 2 h 3 min
Bit rate mode                            : Constant
Bit rate                                 : 448 kb/s
Channel(s)                               : 6 channels
Channel positions                        : Front: L C R, Side: L R, LFE
Sampling rate                            : 48.0 kHz
Frame rate                               : 31.250 FPS (1536 SPF)
Bit depth                                : 16 bits
Compression mode                         : Lossy
Delay relative to video                  : 28 ms
Stream size                              : 395 MiB (1%)
Title                                    : The.Shape.of.Water.2017.2160p.BluRay.REMUX.HEVC.DTS-HD.MA.5.1-FGT
Language                                 : English
Service kind                             : Complete Main
Default                                  : No
Forced                                   : No

Audio #3
ID                                       : 4
Format                                   : AC-3
Format/Info                              : Audio Coding 3
Codec ID                                 : A_AC3
Duration                                 : 2 h 3 min
Bit rate mode                            : Constant
Bit rate                                 : 448 kb/s
Channel(s)                               : 6 channels
Channel positions                        : Front: L C R, Side: L R, LFE
Sampling rate                            : 48.0 kHz
Frame rate                               : 31.250 FPS (1536 SPF)
Bit depth                                : 16 bits
Compression mode                         : Lossy
Delay relative to video                  : 28 ms
Stream size                              : 395 MiB (1%)
Title                                    : The.Shape.of.Water.2017.2160p.BluRay.REMUX.HEVC.DTS-HD.MA.5.1-FGT
Language                                 : Spanish
Service kind                             : Complete Main
Default                                  : No
Forced                                   : No

Audio #4
ID                                       : 5
Format                                   : DTS
Format/Info                              : Digital Theater Systems
Codec ID                                 : A_DTS
Duration                                 : 2 h 3 min
Bit rate mode                            : Constant
Bit rate                                 : 768 kb/s
Channel(s)                               : 6 channels
Channel positions                        : Front: L C R, Side: L R, LFE
Sampling rate                            : 48.0 kHz
Frame rate                               : 93.750 FPS (512 SPF)
Bit depth                                : 24 bits
Compression mode                         : Lossy
Stream size                              : 677 MiB (1%)
Title                                    : The.Shape.of.Water.2017.2160p.BluRay.REMUX.HEVC.DTS-HD.MA.5.1-FGT
Language                                 : French
Default                                  : No
Forced                                   : No

Audio #5
ID                                       : 6
Format                                   : DTS
Format/Info                              : Digital Theater Systems
Codec ID                                 : A_DTS
Duration                                 : 2 h 3 min
Bit rate mode                            : Constant
Bit rate                                 : 768 kb/s
Channel(s)                               : 6 channels
Channel positions                        : Front: L C R, Side: L R, LFE
Sampling rate                            : 48.0 kHz
Frame rate                               : 93.750 FPS (512 SPF)
Bit depth                                : 24 bits
Compression mode                         : Lossy
Stream size                              : 677 MiB (1%)
Title                                    : The.Shape.of.Water.2017.2160p.BluRay.REMUX.HEVC.DTS-HD.MA.5.1-FGT
Language                                 : Spanish
Default                                  : No
Forced                                   : No

Audio #6
ID                                       : 7
Format                                   : DTS
Format/Info                              : Digital Theater Systems
Codec ID                                 : A_DTS
Duration                                 : 2 h 3 min
Bit rate mode                            : Constant
Bit rate                                 : 768 kb/s
Channel(s)                               : 6 channels
Channel positions                        : Front: L C R, Side: L R, LFE
Sampling rate                            : 48.0 kHz
Frame rate                               : 93.750 FPS (512 SPF)
Bit depth                                : 24 bits
Compression mode                         : Lossy
Stream size                              : 677 MiB (1%)
Title                                    : The.Shape.of.Water.2017.2160p.BluRay.REMUX.HEVC.DTS-HD.MA.5.1-FGT
Language                                 : German
Default                                  : No
Forced                                   : No

Audio #7
ID                                       : 8
Format                                   : DTS
Format/Info                              : Digital Theater Systems
Codec ID                                 : A_DTS
Duration                                 : 2 h 3 min
Bit rate mode                            : Constant
Bit rate                                 : 768 kb/s
Channel(s)                               : 6 channels
Channel positions                        : Front: L C R, Side: L R, LFE
Sampling rate                            : 48.0 kHz
Frame rate                               : 93.750 FPS (512 SPF)
Bit depth                                : 24 bits
Compression mode                         : Lossy
Stream size                              : 677 MiB (1%)
Title                                    : The.Shape.of.Water.2017.2160p.BluRay.REMUX.HEVC.DTS-HD.MA.5.1-FGT
Language                                 : Italian
Default                                  : No
Forced                                   : No

Audio #8
ID                                       : 9
Format                                   : AC-3
Format/Info                              : Audio Coding 3
Codec ID                                 : A_AC3
Duration                                 : 2 h 3 min
Bit rate mode                            : Constant
Bit rate                                 : 448 kb/s
Channel(s)                               : 6 channels
Channel positions                        : Front: L C R, Side: L R, LFE
Sampling rate                            : 48.0 kHz
Frame rate                               : 31.250 FPS (1536 SPF)
Bit depth                                : 16 bits
Compression mode                         : Lossy
Delay relative to video                  : 28 ms
Stream size                              : 395 MiB (1%)
Title                                    : The.Shape.of.Water.2017.2160p.BluRay.REMUX.HEVC.DTS-HD.MA.5.1-FGT
Language                                 : Czech
Service kind                             : Complete Main
Default                                  : No
Forced                                   : No

Audio #9
ID                                       : 10
Format                                   : AC-3
Format/Info                              : Audio Coding 3
Codec ID                                 : A_AC3
Duration                                 : 2 h 3 min
Bit rate mode                            : Constant
Bit rate                                 : 448 kb/s
Channel(s)                               : 6 channels
Channel positions                        : Front: L C R, Side: L R, LFE
Sampling rate                            : 48.0 kHz
Frame rate                               : 31.250 FPS (1536 SPF)
Bit depth                                : 16 bits
Compression mode                         : Lossy
Delay relative to video                  : 28 ms
Stream size                              : 395 MiB (1%)
Title                                    : The.Shape.of.Water.2017.2160p.BluRay.REMUX.HEVC.DTS-HD.MA.5.1-FGT
Language                                 : Polish
Service kind                             : Complete Main
Default                                  : No
Forced                                   : No

Audio #10
ID                                       : 11
Format                                   : DTS
Format/Info                              : Digital Theater Systems
Codec ID                                 : A_DTS
Duration                                 : 2 h 3 min
Bit rate mode                            : Constant
Bit rate                                 : 768 kb/s
Channel(s)                               : 6 channels
Channel positions                        : Front: L C R, Side: L R, LFE
Sampling rate                            : 48.0 kHz
Frame rate                               : 93.750 FPS (512 SPF)
Bit depth                                : 24 bits
Compression mode                         : Lossy
Stream size                              : 677 MiB (1%)
Title                                    : The.Shape.of.Water.2017.2160p.BluRay.REMUX.HEVC.DTS-HD.MA.5.1-FGT
Language                                 : Japanese
Default                                  : No
Forced                                   : No

Text #1
ID                                       : 12
Format                                   : PGS
Muxing mode                              : zlib
Codec ID                                 : S_HDMV/PGS
Codec ID/Info                            : Picture based subtitle format used on BDs/HD-DVDs
Duration                                 : 1 h 47 min
Bit rate                                 : 1 229 b/s
Count of elements                        : 338
Stream size                              : 968 KiB (0%)
Title                                    : English-FORCED-PGS
Language                                 : English
Default                                  : Yes
Forced                                   : No

Text #2
ID                                       : 13
Format                                   : PGS
Muxing mode                              : zlib
Codec ID                                 : S_HDMV/PGS
Codec ID/Info                            : Picture based subtitle format used on BDs/HD-DVDs
Duration                                 : 2 h 2 min
Bit rate                                 : 21.7 kb/s
Count of elements                        : 3856
Stream size                              : 19.1 MiB (0%)
Title                                    : English-PGS
Language                                 : English
Default                                  : No
Forced                                   : No

Text #3
ID                                       : 14
Format                                   : PGS
Muxing mode                              : zlib
Codec ID                                 : S_HDMV/PGS
Codec ID/Info                            : Picture based subtitle format used on BDs/HD-DVDs
Duration                                 : 2 h 1 min
Bit rate                                 : 15.8 kb/s
Count of elements                        : 2759
Stream size                              : 13.7 MiB (0%)
Title                                    : Spanish-PGS
Language                                 : Spanish
Default                                  : No
Forced                                   : No

Text #4
ID                                       : 15
Format                                   : PGS
Muxing mode                              : zlib
Codec ID                                 : S_HDMV/PGS
Codec ID/Info                            : Picture based subtitle format used on BDs/HD-DVDs
Duration                                 : 2 h 1 min
Bit rate                                 : 14.7 kb/s
Count of elements                        : 2664
Stream size                              : 12.8 MiB (0%)
Title                                    : Spanish-PGS
Language                                 : Spanish
Default                                  : No
Forced                                   : No

Text #5
ID                                       : 16
Format                                   : PGS
Muxing mode                              : zlib
Codec ID                                 : S_HDMV/PGS
Codec ID/Info                            : Picture based subtitle format used on BDs/HD-DVDs
Duration                                 : 2 h 1 min
Bit rate                                 : 25.6 kb/s
Count of elements                        : 1990
Stream size                              : 22.3 MiB (0%)
Title                                    : Danish-PGS
Language                                 : Danish
Default                                  : No
Forced                                   : No

Text #6
ID                                       : 17
Format                                   : PGS
Muxing mode                              : zlib
Codec ID                                 : S_HDMV/PGS
Codec ID/Info                            : Picture based subtitle format used on BDs/HD-DVDs
Duration                                 : 2 h 1 min
Bit rate                                 : 22.7 kb/s
Count of elements                        : 2298
Stream size                              : 19.7 MiB (0%)
Title                                    : Dutch-PGS
Language                                 : Dutch
Default                                  : No
Forced                                   : No

Text #7
ID                                       : 18
Format                                   : PGS
Muxing mode                              : zlib
Codec ID                                 : S_HDMV/PGS
Codec ID/Info                            : Picture based subtitle format used on BDs/HD-DVDs
Duration                                 : 2 h 1 min
Bit rate                                 : 24.9 kb/s
Count of elements                        : 2766
Stream size                              : 21.6 MiB (0%)
Title                                    : Finnish-PGS
Language                                 : Finnish
Default                                  : No
Forced                                   : No

Text #8
ID                                       : 19
Format                                   : PGS
Muxing mode                              : zlib
Codec ID                                 : S_HDMV/PGS
Codec ID/Info                            : Picture based subtitle format used on BDs/HD-DVDs
Duration                                 : 2 h 1 min
Bit rate                                 : 16.3 kb/s
Count of elements                        : 2568
Stream size                              : 14.1 MiB (0%)
Title                                    : German-PGS
Language                                 : German
Default                                  : No
Forced                                   : No

Text #9
ID                                       : 20
Format                                   : PGS
Muxing mode                              : zlib
Codec ID                                 : S_HDMV/PGS
Codec ID/Info                            : Picture based subtitle format used on BDs/HD-DVDs
Duration                                 : 2 h 1 min
Bit rate                                 : 15.2 kb/s
Count of elements                        : 2752
Stream size                              : 13.3 MiB (0%)
Title                                    : Italian-PGS
Language                                 : Italian
Default                                  : No
Forced                                   : No

Text #10
ID                                       : 21
Format                                   : PGS
Muxing mode                              : zlib
Codec ID                                 : S_HDMV/PGS
Codec ID/Info                            : Picture based subtitle format used on BDs/HD-DVDs
Duration                                 : 2 h 1 min
Bit rate                                 : 26.5 kb/s
Count of elements                        : 2726
Stream size                              : 23.0 MiB (0%)
Title                                    : Norwegian-PGS
Language                                 : Norwegian
Default                                  : No
Forced                                   : No

Text #11
ID                                       : 22
Format                                   : PGS
Muxing mode                              : zlib
Codec ID                                 : S_HDMV/PGS
Codec ID/Info                            : Picture based subtitle format used on BDs/HD-DVDs
Duration                                 : 2 h 1 min
Bit rate                                 : 25.3 kb/s
Count of elements                        : 2738
Stream size                              : 22.0 MiB (0%)
Title                                    : Swedish-PGS
Language                                 : Swedish
Default                                  : No
Forced                                   : No

Text #12
ID                                       : 23
Format                                   : PGS
Muxing mode                              : zlib
Codec ID                                 : S_HDMV/PGS
Codec ID/Info                            : Picture based subtitle format used on BDs/HD-DVDs
Duration                                 : 2 h 1 min
Bit rate                                 : 20.7 kb/s
Count of elements                        : 2826
Stream size                              : 18.0 MiB (0%)
Title                                    : Chinese-pGS
Language                                 : Chinese
Default                                  : No
Forced                                   : No

Text #13
ID                                       : 24
Format                                   : PGS
Muxing mode                              : zlib
Codec ID                                 : S_HDMV/PGS
Codec ID/Info                            : Picture based subtitle format used on BDs/HD-DVDs
Duration                                 : 2 h 1 min
Bit rate                                 : 25.6 kb/s
Count of elements                        : 2790
Stream size                              : 22.3 MiB (0%)
Title                                    : Czech-PGS
Language                                 : Czech
Default                                  : No
Forced                                   : No

Text #14
ID                                       : 25
Format                                   : PGS
Muxing mode                              : zlib
Codec ID                                 : S_HDMV/PGS
Codec ID/Info                            : Picture based subtitle format used on BDs/HD-DVDs
Duration                                 : 2 h 1 min
Bit rate                                 : 20.7 kb/s
Count of elements                        : 2794
Stream size                              : 18.0 MiB (0%)
Title                                    : Chinese-PGS
Language                                 : Chinese
Default                                  : No
Forced                                   : No

Text #15
ID                                       : 26
Format                                   : PGS
Muxing mode                              : zlib
Codec ID                                 : S_HDMV/PGS
Codec ID/Info                            : Picture based subtitle format used on BDs/HD-DVDs
Duration                                 : 2 h 1 min
Bit rate                                 : 20.7 kb/s
Count of elements                        : 2548
Stream size                              : 18.0 MiB (0%)
Title                                    : Polish-PGS
Language                                 : Polish
Default                                  : No
Forced                                   : No

Text #16
ID                                       : 27
Format                                   : PGS
Muxing mode                              : zlib
Codec ID                                 : S_HDMV/PGS
Codec ID/Info                            : Picture based subtitle format used on BDs/HD-DVDs
Duration                                 : 2 h 1 min
Bit rate                                 : 16.7 kb/s
Count of elements                        : 2254
Stream size                              : 14.5 MiB (0%)
Title                                    : Japanese-PGS
Language                                 : Japanese
Default                                  : No
Forced                                   : No

Text #17
ID                                       : 28
Format                                   : PGS
Muxing mode                              : zlib
Codec ID                                 : S_HDMV/PGS
Codec ID/Info                            : Picture based subtitle format used on BDs/HD-DVDs
Duration                                 : 1 h 49 min
Bit rate                                 : 2 640 b/s
Count of elements                        : 368
Stream size                              : 2.07 MiB (0%)
Title                                    : Japanese-FORCED-PGS
Language                                 : Japanese
Default                                  : No
Forced                                   : No

Text #18
ID                                       : 29
Format                                   : PGS
Muxing mode                              : zlib
Codec ID                                 : S_HDMV/PGS
Codec ID/Info                            : Picture based subtitle format used on BDs/HD-DVDs
Duration                                 : 2 h 1 min
Bit rate                                 : 13.6 kb/s
Count of elements                        : 2476
Stream size                              : 11.8 MiB (0%)
Title                                    : French-PGS
Language                                 : French
Default                                  : No
Forced                                   : No

Text #19
ID                                       : 30
Format                                   : PGS
Muxing mode                              : zlib
Codec ID                                 : S_HDMV/PGS
Codec ID/Info                            : Picture based subtitle format used on BDs/HD-DVDs
Duration                                 : 1 h 58 min
Bit rate                                 : 1 507 b/s
Count of elements                        : 388
Stream size                              : 1.28 MiB (0%)
Title                                    : Spanish-FORCED-PGS
Language                                 : Spanish
Default                                  : No
Forced                                   : No

Text #20
ID                                       : 31
Format                                   : PGS
Muxing mode                              : zlib
Codec ID                                 : S_HDMV/PGS
Codec ID/Info                            : Picture based subtitle format used on BDs/HD-DVDs
Duration                                 : 1 h 58 min
Bit rate                                 : 1 594 b/s
Count of elements                        : 362
Stream size                              : 1.35 MiB (0%)
Title                                    : French-FORCED-PGS
Language                                 : French
Default                                  : No
Forced                                   : No

Text #21
ID                                       : 32
Format                                   : PGS
Muxing mode                              : zlib
Codec ID                                 : S_HDMV/PGS
Codec ID/Info                            : Picture based subtitle format used on BDs/HD-DVDs
Duration                                 : 2 h 1 min
Bit rate                                 : 1 465 b/s
Count of elements                        : 362
Stream size                              : 1.28 MiB (0%)
Title                                    : Spanish-FORCED-PGS
Language                                 : Spanish
Default                                  : No
Forced                                   : No

Text #22
ID                                       : 33
Format                                   : PGS
Muxing mode                              : zlib
Codec ID                                 : S_HDMV/PGS
Codec ID/Info                            : Picture based subtitle format used on BDs/HD-DVDs
Duration                                 : 1 h 58 min
Bit rate                                 : 1 621 b/s
Count of elements                        : 328
Stream size                              : 1.37 MiB (0%)
Title                                    : German-FORCED-PGS
Language                                 : German
Default                                  : No
Forced                                   : No

Text #23
ID                                       : 34
Format                                   : PGS
Muxing mode                              : zlib
Codec ID                                 : S_HDMV/PGS
Codec ID/Info                            : Picture based subtitle format used on BDs/HD-DVDs
Duration                                 : 1 h 58 min
Bit rate                                 : 1 404 b/s
Count of elements                        : 378
Stream size                              : 1.19 MiB (0%)
Title                                    : Italian-FORCED-PGS
Language                                 : Italian
Default                                  : No
Forced                                   : No

Menu
00:00:00.000                             : en:Chapter 1
00:06:24.467                             : en:Chapter 2
00:12:54.774                             : en:Chapter 3
00:18:32.986                             : en:Chapter 4
00:23:45.590                             : en:Chapter 5
00:29:39.652                             : en:Chapter 6
00:35:29.836                             : en:Chapter 7
00:39:30.534                             : en:Chapter 8
00:42:42.434                             : en:Chapter 9
00:48:34.036                             : en:Chapter 10
00:52:26.935                             : en:Chapter 11
00:57:30.196                             : en:Chapter 12
01:01:52.542                             : en:Chapter 13
01:07:35.551                             : en:Chapter 14
01:12:13.495                             : en:Chapter 15
01:17:50.791                             : en:Chapter 16
01:21:17.122                             : en:Chapter 17
01:26:05.910                             : en:Chapter 18
01:32:48.479                             : en:Chapter 19
01:37:18.749                             : en:Chapter 20
01:43:24.114                             : en:Chapter 21
01:46:06.610                             : en:Chapter 22
01:50:31.666                             : en:Chapter 23
01:58:34.857                             : en:Chapter 24



忘形水(港) / 水底情深(台) / 水形奇缘 / 水之形 / 水的形状 / 水无常形 / 水形物语4K The.Shape.of.Water.2017.2160p.BluRay.HEVC.DTS-HD.MA.5.1 4K  UHD蓝光原盘电影下载

水形物语4K The.Shape.of.Water.2017.2160p.BluRay.HEVC.DTS-HD.MA.5.1-COASTER  (4K UHD 蓝光蓝光破解版 2160p 57.31GB )
游客,如果您要查看本帖隐藏内容请回复

水形物语4K The.Shape.of.Water.2017.2160p.BluRay.REMUX.HEVC.DTS-HD.MA.5.1-FGT  (4K UHD 蓝光蓝光破解版 2160p 52.92GB )
游客,如果您要查看本帖隐藏内容请回复

点评

求大佬保种!最后1GB没速度了,只有一个法国小哥还坚挺  发表于 2018-3-17 23:10


 
推荐
发表于 2018-3-9 09:43 来自 移动版  | 只看该作者
期待 感谢分析
板凳
发表于 2018-3-9 08:24 | 只看该作者
地板
发表于 2018-3-9 08:45 | 只看该作者
珍惜生命、珍惜hao4k网站,果断回帖。
5#
发表于 2018-3-9 08:50 | 只看该作者
感谢hao4k这个网站提供这么多4K视频资源,太棒了!
6#
发表于 2018-3-9 08:52 | 只看该作者
感谢hao4k这个网站提供这么多4K视频资源,太棒了!
7#
发表于 2018-3-9 08:59 | 只看该作者
谢谢分享先来看看
8#
发表于 2018-3-9 09:04 | 只看该作者
感谢hao4k这个网站提供这么多4K视频资源,太棒了!
9#
发表于 2018-3-9 09:06 | 只看该作者
好电影,谢谢老大
10#
发表于 2018-3-9 09:09 | 只看该作者
简直是太好的东西,谢谢楼主!!!
11#
发表于 2018-3-9 09:15 | 只看该作者
感谢hao4k这个网站提供这么多4K视频资源,太棒了!
12#
发表于 2018-3-9 09:16 | 只看该作者
支持hao4k发展,支持楼主在Hao4k发布4K视频资源。
13#
发表于 2018-3-9 09:17 | 只看该作者
感谢hao4k这个网站提供这么多4K视频资源,太棒了!
14#
发表于 2018-3-9 09:20 | 只看该作者
支持hao4k发展,支持楼主在Hao4k发布4K视频资源。
15#
发表于 2018-3-9 09:20 | 只看该作者
感谢hao4k这个网站提供这么多4K视频资源,太棒了!
16#
发表于 2018-3-9 09:30 | 只看该作者
谢谢楼主的无私分享~~
17#
发表于 2018-3-9 09:41 | 只看该作者
看看~~~~~~~~~~~~~~~~~~~~
18#
发表于 2018-3-9 09:49 | 只看该作者
这次怎么针哦快/
您需要登录后才可以回帖 登录 | 立即注册

本版积分规则

返回顶部 联系我们
北京十一选五走势图表 排列3走势图1000期 浙江11选5软件 特区七星彩高手交流区 北京快乐8开奖结果
安徽25选5中奖规则 新加坡幸运28开奖结果 北京pk10改单是什么意思 贵州快三app下载 腾讯分分彩直播
环球彩票 浙江十一选五开奖结果 河北快三在线购买 内蒙古11选5走势图前三图 陕西快乐十分预测
陕西11选5一定 天津十一选五开奖结果天津 韩国快乐8哪个平台有 甘肃11选五前三开奖号 秒速赛车正版网址