你所知道的4K资源这里全部都有 4K电影 | 4K视频 | 4K壁纸 | 4K MV 怎么播放4K视频 | 4K电视演示片▼

教你玩转4K私人与家庭影院存储 NAS组装 | 黑群辉 家庭/影院Nas论坛

4K家庭影院信号源与视频设备知识 4K蓝光高清播放机 - 那个品牌好? 4K投影机论坛 | 4K电视机论坛

手把手教你搭建属于自己的家庭影院 4K家庭影院案例 | 家庭影院音频 4K家庭影院论坛

跳转到指定楼层
楼主
发表于 2018-4-25 22:50 | 只看该作者 |只看大图 回帖奖励 |倒序浏览 |阅读模式

片  名:敌对分子4k [下载地址在帖子底部]

  • 年  代:2018年  
  • 国  家:美国 
  • 类  别:冒险 剧情 西部 
  • 字  幕:英文原版
  • 上映日期:2018-01-26
  • 文件格式:mkv   m2ts   
  • 视频效果:4K(3840x2160)    
  • 文件大小:79.20GB
  • 片  长:127分钟
  • 导  演:斯科特·库珀
  • 豆瓣链接:http://www.tuudc.com.cn//subject/26730826/
  • 主  演:克里斯蒂安·贝尔 / 裴淳华 / 本·福斯特 / 史蒂芬·朗 / 杰西·普莱蒙 / 保罗·安德森 / 斯科特·威尔森 / 考莉安卡·基尔彻 / 乔纳森·梅杰斯 / 罗利·科奇瑞恩 / 彼得·穆兰 / 亚当·比奇 / 韦斯·斯塔迪 / 蒂莫西·柴勒梅德 / 比尔·坎普

剧情简介

  背景设定在1892年,讲述在一场严峻的反抗暴乱之后,上尉Blocker勉强同意护送生命危在旦夕的夏延酋长及家人返回他们生活的部落。在这段从新墨西哥州前往蒙大拿州草地痛苦又冒险的旅程中,这对前竞争对手遇到了一个寡妇,她的家人们在平原之上被谋杀了。三方要共同合作克服艰难的地形继续上路,还要对抗科曼奇族的敌人以及邪恶凶猛的露宿者。

敌对者/敌对分子4k Hostiles.2017.2160p.BluRay.HEVC.DTS-HD.MA.5.1 4K  UHD蓝光原盘电影信息

第336部4K UHD 蓝光原盘破解版,含完整的 BDMV 文件夹以及数据,AACS 2.0 协议已被完整破解
DISC INFO:

Disc Title:     Hostiles.2017.2160p.BluRay.HEVC.DTS-HD.MA.5.1-COASTER
Disc Size:      85,038,632,478 bytes
Protection:     AACS2
BD-Java:        Yes
Extras:         Ultra HD
BDInfo:         0.5.8.7 (compatible layout created by DVDFab 10.0.8.4)

PLAYLIST REPORT:

Name:                   00802.MPLS  
Length:                 2:14:16.923 (h:m:s.ms)
Size:                   75,124,137,984 bytes
Total Bitrate:          74.59 Mbps

VIDEO:

Codec                   Bitrate             Description     
-----                   -------             -----------     
MPEG-H HEVC Video       67337 kbps          2160p / 23.976 fps / 16:9 / Main 10 Profile 5.1 High / 4:2:0 / 10 bits / HDR / BT.2020 /

AUDIO:

Codec                           Language        Bitrate         Description     
-----                           --------        -------         -----------     
DTS-HD Master Audio             English         3582 kbps       5.1 / 48 kHz / 3582 kbps / 24-bit (DTS Core: 5.1 / 48 kHz / 1509 kbps / 24-bit)
Dolby Digital Audio             English         192 kbps        2.0 / 48 kHz / 192 kbps / Dolby Surround

SUBTITLES:

Codec                           Language        Bitrate         Description     
-----                           --------        -------         -----------     
Presentation Graphics           English         18.756 kbps                     
Presentation Graphics           Spanish         17.164 kbps            
REMUX
Video
ID                                       : 1
Format                                   : HEVC
Format/Info                              : High Efficiency Video Coding
Format profile                           : Main 10@L5.1@High
Codec ID                                 : V_MPEGH/ISO/HEVC
Duration                                 : 2 h 14 min
Bit rate                                 : 67.3 Mb/s
Width                                    : 3 840 pixels
Height                                   : 2 160 pixels
Display aspect ratio                     : 16:9
Frame rate mode                          : Constant
Frame rate                               : 23.976 (24000/1001) FPS
Color space                              : YUV
Chroma subsampling                       : 4:2:0 (Type 2)
Bit depth                                : 10 bits
Bits/(Pixel*Frame)                       : 0.339
Stream size                              : 63.2 GiB (95%)
Title                                    : Hostiles.2017.2160p.BluRay.REMUX.HEVC.DTS-HD.MA.5.1-FGT
Default                                  : Yes
Forced                                   : No
Color range                              : Limited
Color primaries                          : BT.2020
Transfer characteristics                 : PQ
Matrix coefficients                      : BT.2020 non-constant
Mastering display color primaries        : Display P3
Mastering display luminance              : min: 0.0050 cd/m2, max: 1000 cd/m2
Maximum Content Light Level              : 1000 cd/m2
Maximum Frame-Average Light Level        : 229 cd/m2

Audio #1
ID                                       : 2
Format                                   : DTS
Format/Info                              : Digital Theater Systems
Format profile                           : MA / Core
Codec ID                                 : A_DTS
Duration                                 : 2 h 14 min
Bit rate mode                            : Variable / Constant
Bit rate                                 : 3 582 kb/s / 1 509 kb/s
Channel(s)                               : 6 channels
Channel positions                        : Front: L C R, Side: L R, LFE
Sampling rate                            : 48.0 kHz
Frame rate                               : 93.750 FPS (512 SPF)
Bit depth                                : 24 bits
Compression mode                         : Lossless / Lossy
Stream size                              : 3.36 GiB (5%)
Title                                    : Hostiles.2017.2160p.BluRay.REMUX.HEVC.DTS-HD.MA.5.1-FGT
Language                                 : English
Default                                  : Yes
Forced                                   : No

Audio #2
ID                                       : 3
Format                                   : AC-3
Format/Info                              : Audio Coding 3
Codec ID                                 : A_AC3
Duration                                 : 2 h 14 min
Bit rate mode                            : Constant
Bit rate                                 : 192 kb/s
Channel(s)                               : 2 channels
Channel positions                        : Front: L R
Sampling rate                            : 48.0 kHz
Frame rate                               : 31.250 FPS (1536 SPF)
Bit depth                                : 16 bits
Compression mode                         : Lossy
Delay relative to video                  : 23 ms
Stream size                              : 184 MiB (0%)
Title                                    : Hostiles.2017.2160p.BluRay.REMUX.HEVC.DTS-HD.MA.5.1-FGT
Language                                 : English
Service kind                             : Complete Main
Default                                  : No
Forced                                   : No

Text #1
ID                                       : 4
Format                                   : PGS
Muxing mode                              : zlib
Codec ID                                 : S_HDMV/PGS
Codec ID/Info                            : Picture based subtitle format used on BDs/HD-DVDs
Duration                                 : 2 h 13 min
Bit rate                                 : 18.9 kb/s
Count of elements                        : 1872
Stream size                              : 18.0 MiB (0%)
Title                                    : English-PGS
Language                                 : English
Default                                  : Yes
Forced                                   : No

Text #2
ID                                       : 5
Format                                   : PGS
Muxing mode                              : zlib
Codec ID                                 : S_HDMV/PGS
Codec ID/Info                            : Picture based subtitle format used on BDs/HD-DVDs
Duration                                 : 2 h 3 min
Bit rate                                 : 18.6 kb/s
Count of elements                        : 1814
Stream size                              : 16.5 MiB (0%)
Title                                    : Spanish-PGS
Language                                 : Spanish
Default                                  : No
Forced                                   : No

Menu
00:00:00.000                             : en:Chapter 1
00:08:18.539                             : en:Chapter 2
00:20:32.064                             : en:Chapter 3
00:25:28.818                             : en:Chapter 4
00:34:48.336                             : en:Chapter 5
00:40:23.546                             : en:Chapter 6
00:51:40.597                             : en:Chapter 7
01:00:18.615                             : en:Chapter 8
01:08:17.176                             : en:Chapter 9
01:14:52.070                             : en:Chapter 10
01:25:29.249                             : en:Chapter 11
01:34:35.461                             : en:Chapter 12
01:43:05.512                             : en:Chapter 13
01:50:45.972                             : en:Chapter 14
01:54:10.677                             : en:Chapter 15
02:05:21.805                             : en:Chapter 16

敌对者/敌对分子4k Hostiles.2017.2160p.BluRay.HEVC.DTS-HD.MA.5.1 4K  UHD蓝光原盘电影信息

敌对分子4k Hostiles.2017.2160p.BluRay.HEVC.DTS-HD.MA.5.1-COASTER  (4K UHD 蓝光破解版 2160p 79.20GB )
游客,如果您要查看本帖隐藏内容请回复

敌对分子4k Hostiles.2017.2160p.BluRay.REMUX.HEVC.DTS-HD.MA.5.1-FGT(4K UHD 蓝光破解版 2160p 66.71GB )
游客,如果您要查看本帖隐藏内容请回复



 
沙发
发表于 2018-4-25 23:03 | 只看该作者
果断回帖!!!
板凳
发表于 2018-4-25 23:51 | 只看该作者
地板
发表于 2018-4-25 23:51 | 只看该作者
支持hao4k发展,支持楼主在Hao4k发布4K视频资源。
5#
发表于 2018-4-26 00:01 | 只看该作者
支持hao4k发展,支持楼主在Hao4k发布4K视频资源。
6#
发表于 2018-4-26 00:02 | 只看该作者
感谢hao4k这个网站提供这么多4K视频资源,太棒了!
7#
发表于 2018-4-26 00:08 | 只看该作者
支持hao4k发展,支持楼主在Hao4k发布4K视频资源。
8#
发表于 2018-4-26 00:12 | 只看该作者
谢谢fex
9#
发表于 2018-4-26 00:21 | 只看该作者
真是太好了
10#
发表于 2018-4-26 00:22 | 只看该作者
感谢hao4k这个网站提供这么多4K视频资源,太棒了!
11#
发表于 2018-4-26 00:41 | 只看该作者
thank you for your sharing
12#
发表于 2018-4-26 01:08 | 只看该作者
感谢hao4k这个网站提供这么多4K视频资源
13#
发表于 2018-4-26 01:34 | 只看该作者
感谢分享!!!
14#
发表于 2018-4-26 01:34 | 只看该作者
感谢分享!!!
15#
发表于 2018-4-26 01:52 | 只看该作者
  感谢hao4k这个网站提供这么多4K视频资源,太棒了!
16#
发表于 2018-4-26 01:52 | 只看该作者
感谢分享
17#
发表于 2018-4-26 01:53 | 只看该作者
感谢hao4k这个网站提供这么多4K视频资源,太棒了!
18#
发表于 2018-4-26 01:54 | 只看该作者
感谢hao4k这个网站提供这么多4K视频资源,太棒了!
您需要登录后才可以回帖 登录 | 立即注册

本版积分规则

返回顶部 联系我们