你所知道的4K资源这里全部都有 4K电影 | 4K视频 | 4K壁纸 | 4K MV 怎么播放4K视频 | 4K电视演示片▼

教你玩转4K私人与家庭影院存储 NAS组装 | 黑群辉 家庭/影院Nas论坛

4K家庭影院信号源与视频设备知识 4K蓝光高清播放机 - 那个品牌好? 4K投影机论坛 | 4K电视机论坛

手把手教你搭建属于自己的家庭影院 4K家庭影院案例 | 家庭影院音频 4K家庭影院论坛

跳转到指定楼层
楼主
发表于 2018-4-25 23:00 | 只看该作者 |只看大图 回帖奖励 |倒序浏览 |阅读模式

片  名:移动迷宫3:死亡解药4k [下载地址在帖子底部]

  • 年  代:2018年  
  • 国  家:美国 
  • 类  别:动作 科幻 冒险 
  • 字  幕:英文原版
  • 上映日期:2018-01-26
  • 文件格式:mkv   m2ts   
  • 视频效果:4K(3840x2160)    
  • 文件大小:61.79GB
  • 片  长:142分钟
  • 导  演:韦斯·鲍尔
  • 豆瓣链接:http://www.tuudc.com.cn//subject/26004132/
  • 主  演:迪伦·奥布莱恩 / 卡雅·斯考达里奥 / 李起弘 / 托马斯·布罗迪-桑斯特 / 罗莎·萨拉查 / 德克斯特·达登 / 艾丹·吉伦 / 威尔·保尔特 / 吉安卡罗·埃斯波西托 / 沃尔顿·戈金斯 / 派翠西娅·克拉克森

剧情简介

 托马斯(迪伦·奥布莱恩饰)率领的林间斗士在经历了迷宫逃脱和末日丧尸的生死考验后,终于迎来最后的正邪较量。由托马斯、纽特(托马斯·桑斯特饰)等人领军的营救团队,耗时三年筹划营救被抓走的米诺,却意外地发现米诺不在劫获的那截火车上。经调查得知,米诺深陷在WCKD组织的控制之中,托马斯和纽特毅然决定起身前往被称为“最后之都”的人类最后净土,更不惜利用背叛林间斗士投身WCKD的特蕾莎(卡雅·斯考达里奥饰)闯入WCKD,营救米诺和其他人。

移动迷宫3 / 死亡解药 / 移动迷宫3:死亡解药4k Maze.Runner.The.Death.Cure.2018.2160p.BluRay.HEVC.TrueHD.7.1.Atmos 4K  UHD蓝光原盘电影信息

第337部4K UHD 蓝光原盘破解版,含完整的 BDMV 文件夹以及数据,AACS 2.0 协议已被完整破解
DISC INFO:

Disc Title:     Maze.Runner.The.Death.Cure.2018.2160p.BluRay.HEVC.TrueHD.7.1.Atmos-COASTER
Disc Size:      66,349,354,434 bytes
Protection:     AACS2
BD-Java:        Yes
Extras:         Ultra HD
BDInfo:         0.5.8.7 (compatible layout created by DVDFab 10.0.8.4)

PLAYLIST REPORT:

Name:                   00700.MPLS  
Length:                 2:23:52.623 (h:m:s.ms)
Size:                   65,638,096,896 bytes
Total Bitrate:          60.83 Mbps

VIDEO:

Codec                   Bitrate             Description     
-----                   -------             -----------     
MPEG-H HEVC Video       41522 kbps          2160p / 23.976 fps / 16:9 / Main 10 Profile 5.1 High / 4:2:0 / 10 bits / HDR / BT.2020 /

AUDIO:

Codec                           Language        Bitrate         Description     
-----                           --------        -------         -----------     
Dolby Atmos/TrueHD Audio        English         8271 kbps       7.1-Atmos / 48 kHz / 8271 kbps / 24-bit (AC3 Core: 5.1 / 48 kHz / 640 kbps)
Dolby Digital Audio             English         448 kbps        5.1 / 48 kHz / 448 kbps
Dolby Digital Audio             Spanish         448 kbps        5.1 / 48 kHz / 448 kbps
DTS Audio                       French          768 kbps        5.1 / 48 kHz / 768 kbps / 24-bit
DTS Audio                       Spanish         768 kbps        5.1 / 48 kHz / 768 kbps / 24-bit
DTS Audio                       German          768 kbps        5.1 / 48 kHz / 768 kbps / 24-bit
DTS Audio                       Italian         768 kbps        5.1 / 48 kHz / 768 kbps / 24-bit
DTS Audio                       Japanese        1509 kbps       5.1 / 48 kHz / 1509 kbps / 24-bit
Dolby Digital Audio             Czech           448 kbps        5.1 / 48 kHz / 448 kbps
Dolby Digital Audio             Polish          448 kbps        5.1 / 48 kHz / 448 kbps
Dolby Digital Audio             English         224 kbps        2.0 / 48 kHz / 224 kbps

SUBTITLES:

Codec                           Language        Bitrate         Description     
-----                           --------        -------         -----------     
Presentation Graphics           English         26.394 kbps                     
Presentation Graphics           Spanish         19.155 kbps                     
Presentation Graphics           French          17.414 kbps                     
Presentation Graphics           Spanish         21.773 kbps                     
Presentation Graphics           Danish          19.163 kbps                     
Presentation Graphics           Dutch           16.919 kbps                     
Presentation Graphics           Finnish         19.301 kbps                     
Presentation Graphics           German          20.381 kbps                     
Presentation Graphics           Italian         20.343 kbps                     
Presentation Graphics           Japanese        11.962 kbps                     
Presentation Graphics           Japanese        0.048 kbps                     
Presentation Graphics           Norwegian       18.853 kbps                     
Presentation Graphics           Swedish         18.844 kbps                     
Presentation Graphics           Chinese         16.203 kbps                     
Presentation Graphics           Czech           18.424 kbps                     
Presentation Graphics           Chinese         15.918 kbps                     
Presentation Graphics           Polish          16.503 kbps                     
Presentation Graphics           English         96.951 kbps                     
Presentation Graphics           Spanish         84.653 kbps                     
Presentation Graphics           French          82.282 kbps                     
Presentation Graphics           Spanish         76.864 kbps                     
Presentation Graphics           Danish          74.612 kbps                     
Presentation Graphics           Dutch           71.404 kbps                     
Presentation Graphics           Finnish         71.869 kbps                     
Presentation Graphics           German          88.237 kbps                     
Presentation Graphics           Italian         81.989 kbps                     
Presentation Graphics           Japanese        39.968 kbps                     
Presentation Graphics           Norwegian       75.096 kbps                     
Presentation Graphics           Swedish         79.923 kbps   
REMUX
Video
ID                                       : 1
Format                                   : HEVC
Format/Info                              : High Efficiency Video Coding
Format profile                           : Main 10@L5.1@High
Codec ID                                 : V_MPEGH/ISO/HEVC
Duration                                 : 2 h 23 min
Bit rate                                 : 41.5 Mb/s
Width                                    : 3 840 pixels
Height                                   : 2 160 pixels
Display aspect ratio                     : 16:9
Frame rate mode                          : Constant
Frame rate                               : 23.976 (24000/1001) FPS
Color space                              : YUV
Chroma subsampling                       : 4:2:0 (Type 2)
Bit depth                                : 10 bits
Bits/(Pixel*Frame)                       : 0.209
Stream size                              : 41.7 GiB (68%)
Title                                    : Maze.Runner.The.Death.Cure.2018.2160p.BluRay.REMUX.HEVC.DTS-HD.MA.TrueHD.7.1.Atmos-FGT
Default                                  : Yes
Forced                                   : No
Color range                              : Limited
Color primaries                          : BT.2020
Transfer characteristics                 : PQ
Matrix coefficients                      : BT.2020 non-constant
Mastering display color primaries        : Display P3
Mastering display luminance              : min: 0.0050 cd/m2, max: 1000 cd/m2

Audio #1
ID                                       : 2
Format                                   : TrueHD
Format profile                           : TrueHD+Atmos / TrueHD
Codec ID                                 : A_TRUEHD
Duration                                 : 2 h 23 min
Bit rate mode                            : Variable
Bit rate                                 : 7 631 kb/s
Maximum bit rate                         : 12.1 Mb/s
Channel(s)                               : Object Based / 8 channels
Channel positions                        : Object Based / Front: L C R, Side: L R, Back: L R, LFE
Sampling rate                            :  / 48.0 kHz
Frame rate                               : 1 200.000 FPS (40 SPF)
Compression mode                         : Lossless
Stream size                              : 7.67 GiB (13%)
Title                                    : Maze.Runner.The.Death.Cure.2018.2160p.BluRay.REMUX.HEVC.DTS-HD.MA.TrueHD.7.1.Atmos-FGT
Language                                 : English
Default                                  : Yes
Forced                                   : No

Audio #2
ID                                       : 3
Format                                   : DTS
Format/Info                              : Digital Theater Systems
Format profile                           : MA / Core
Codec ID                                 : A_DTS
Duration                                 : 2 h 23 min
Bit rate mode                            : Variable / Constant
Bit rate                                 : 4 133 kb/s / 1 509 kb/s
Channel(s)                               : 8 channels / 6 channels
Channel positions                        : Front: L C R, Side: L R, Back: L R, LFE / Front: L C R, Side: L R, LFE
Sampling rate                            : 48.0 kHz
Frame rate                               : 93.750 FPS (512 SPF)
Bit depth                                : 24 bits
Compression mode                         : Lossless / Lossy
Stream size                              : 4.15 GiB (7%)
Title                                    : Maze.Runner.The.Death.Cure.2018.2160p.BluRay.REMUX.HEVC.DTS-HD.MA.TrueHD.7.1.Atmos-FGT
Language                                 : English
Default                                  : No
Forced                                   : No

Audio #3
ID                                       : 4
Format                                   : AC-3
Format/Info                              : Audio Coding 3
Codec ID                                 : A_AC3
Duration                                 : 2 h 23 min
Bit rate mode                            : Constant
Bit rate                                 : 640 kb/s
Channel(s)                               : 6 channels
Channel positions                        : Front: L C R, Side: L R, LFE
Sampling rate                            : 48.0 kHz
Frame rate                               : 31.250 FPS (1536 SPF)
Bit depth                                : 16 bits
Compression mode                         : Lossy
Stream size                              : 659 MiB (1%)
Title                                    : Maze.Runner.The.Death.Cure.2018.2160p.BluRay.REMUX.HEVC.DTS-HD.MA.TrueHD.7.1.Atmos-FGT
Language                                 : English
Service kind                             : Complete Main
Default                                  : No
Forced                                   : No

Audio #4
ID                                       : 5
Format                                   : AC-3
Format/Info                              : Audio Coding 3
Codec ID                                 : A_AC3
Duration                                 : 2 h 23 min
Bit rate mode                            : Constant
Bit rate                                 : 448 kb/s
Channel(s)                               : 6 channels
Channel positions                        : Front: L C R, Side: L R, LFE
Sampling rate                            : 48.0 kHz
Frame rate                               : 31.250 FPS (1536 SPF)
Bit depth                                : 16 bits
Compression mode                         : Lossy
Delay relative to video                  : 14 ms
Stream size                              : 461 MiB (1%)
Title                                    : Maze.Runner.The.Death.Cure.2018.2160p.BluRay.REMUX.HEVC.DTS-HD.MA.TrueHD.7.1.Atmos-FGT
Language                                 : English
Service kind                             : Complete Main
Default                                  : No
Forced                                   : No

Audio #5
ID                                       : 6
Format                                   : AC-3
Format/Info                              : Audio Coding 3
Codec ID                                 : A_AC3
Duration                                 : 2 h 23 min
Bit rate mode                            : Constant
Bit rate                                 : 448 kb/s
Channel(s)                               : 6 channels
Channel positions                        : Front: L C R, Side: L R, LFE
Sampling rate                            : 48.0 kHz
Frame rate                               : 31.250 FPS (1536 SPF)
Bit depth                                : 16 bits
Compression mode                         : Lossy
Delay relative to video                  : 14 ms
Stream size                              : 461 MiB (1%)
Title                                    : Maze.Runner.The.Death.Cure.2018.2160p.BluRay.REMUX.HEVC.DTS-HD.MA.TrueHD.7.1.Atmos-FGT
Language                                 : Spanish
Service kind                             : Complete Main
Default                                  : No
Forced                                   : No

Audio #6
ID                                       : 7
Format                                   : DTS
Format/Info                              : Digital Theater Systems
Codec ID                                 : A_DTS
Duration                                 : 2 h 23 min
Bit rate mode                            : Constant
Bit rate                                 : 768 kb/s
Channel(s)                               : 6 channels
Channel positions                        : Front: L C R, Side: L R, LFE
Sampling rate                            : 48.0 kHz
Frame rate                               : 93.750 FPS (512 SPF)
Bit depth                                : 24 bits
Compression mode                         : Lossy
Stream size                              : 790 MiB (1%)
Title                                    : Maze.Runner.The.Death.Cure.2018.2160p.BluRay.REMUX.HEVC.DTS-HD.MA.TrueHD.7.1.Atmos-FGT
Language                                 : French
Default                                  : No
Forced                                   : No

Audio #7
ID                                       : 8
Format                                   : DTS
Format/Info                              : Digital Theater Systems
Codec ID                                 : A_DTS
Duration                                 : 2 h 23 min
Bit rate mode                            : Constant
Bit rate                                 : 768 kb/s
Channel(s)                               : 6 channels
Channel positions                        : Front: L C R, Side: L R, LFE
Sampling rate                            : 48.0 kHz
Frame rate                               : 93.750 FPS (512 SPF)
Bit depth                                : 24 bits
Compression mode                         : Lossy
Stream size                              : 790 MiB (1%)
Title                                    : Maze.Runner.The.Death.Cure.2018.2160p.BluRay.REMUX.HEVC.DTS-HD.MA.TrueHD.7.1.Atmos-FGT
Language                                 : Spanish
Default                                  : No
Forced                                   : No

Audio #8
ID                                       : 9
Format                                   : DTS
Format/Info                              : Digital Theater Systems
Codec ID                                 : A_DTS
Duration                                 : 2 h 23 min
Bit rate mode                            : Constant
Bit rate                                 : 768 kb/s
Channel(s)                               : 6 channels
Channel positions                        : Front: L C R, Side: L R, LFE
Sampling rate                            : 48.0 kHz
Frame rate                               : 93.750 FPS (512 SPF)
Bit depth                                : 24 bits
Compression mode                         : Lossy
Stream size                              : 790 MiB (1%)
Title                                    : Maze.Runner.The.Death.Cure.2018.2160p.BluRay.REMUX.HEVC.DTS-HD.MA.TrueHD.7.1.Atmos-FGT
Language                                 : German
Default                                  : No
Forced                                   : No

Audio #9
ID                                       : 10
Format                                   : DTS
Format/Info                              : Digital Theater Systems
Codec ID                                 : A_DTS
Duration                                 : 2 h 23 min
Bit rate mode                            : Constant
Bit rate                                 : 768 kb/s
Channel(s)                               : 6 channels
Channel positions                        : Front: L C R, Side: L R, LFE
Sampling rate                            : 48.0 kHz
Frame rate                               : 93.750 FPS (512 SPF)
Bit depth                                : 24 bits
Compression mode                         : Lossy
Stream size                              : 790 MiB (1%)
Title                                    : Maze.Runner.The.Death.Cure.2018.2160p.BluRay.REMUX.HEVC.DTS-HD.MA.TrueHD.7.1.Atmos-FGT
Language                                 : Italian
Default                                  : No
Forced                                   : No

Audio #10
ID                                       : 11
Format                                   : DTS
Format/Info                              : Digital Theater Systems
Codec ID                                 : A_DTS
Duration                                 : 2 h 23 min
Bit rate mode                            : Constant
Bit rate                                 : 1 509 kb/s
Channel(s)                               : 6 channels
Channel positions                        : Front: L C R, Side: L R, LFE
Sampling rate                            : 48.0 kHz
Frame rate                               : 93.750 FPS (512 SPF)
Bit depth                                : 24 bits
Compression mode                         : Lossy
Stream size                              : 1.52 GiB (2%)
Title                                    : Maze.Runner.The.Death.Cure.2018.2160p.BluRay.REMUX.HEVC.DTS-HD.MA.TrueHD.7.1.Atmos-FGT
Language                                 : Japanese
Default                                  : No
Forced                                   : No

Audio #11
ID                                       : 12
Format                                   : AC-3
Format/Info                              : Audio Coding 3
Codec ID                                 : A_AC3
Duration                                 : 2 h 23 min
Bit rate mode                            : Constant
Bit rate                                 : 448 kb/s
Channel(s)                               : 6 channels
Channel positions                        : Front: L C R, Side: L R, LFE
Sampling rate                            : 48.0 kHz
Frame rate                               : 31.250 FPS (1536 SPF)
Bit depth                                : 16 bits
Compression mode                         : Lossy
Delay relative to video                  : 14 ms
Stream size                              : 461 MiB (1%)
Title                                    : Maze.Runner.The.Death.Cure.2018.2160p.BluRay.REMUX.HEVC.DTS-HD.MA.TrueHD.7.1.Atmos-FGT
Language                                 : Czech
Service kind                             : Complete Main
Default                                  : No
Forced                                   : No

Audio #12
ID                                       : 13
Format                                   : AC-3
Format/Info                              : Audio Coding 3
Codec ID                                 : A_AC3
Duration                                 : 2 h 23 min
Bit rate mode                            : Constant
Bit rate                                 : 448 kb/s
Channel(s)                               : 6 channels
Channel positions                        : Front: L C R, Side: L R, LFE
Sampling rate                            : 48.0 kHz
Frame rate                               : 31.250 FPS (1536 SPF)
Bit depth                                : 16 bits
Compression mode                         : Lossy
Delay relative to video                  : 14 ms
Stream size                              : 461 MiB (1%)
Title                                    : Maze.Runner.The.Death.Cure.2018.2160p.BluRay.REMUX.HEVC.DTS-HD.MA.TrueHD.7.1.Atmos-FGT
Language                                 : Polish
Service kind                             : Complete Main
Default                                  : No
Forced                                   : No

Audio #13
ID                                       : 14
Format                                   : AC-3
Format/Info                              : Audio Coding 3
Codec ID                                 : A_AC3
Duration                                 : 2 h 23 min
Bit rate mode                            : Constant
Bit rate                                 : 224 kb/s
Channel(s)                               : 2 channels
Channel positions                        : Front: L R
Sampling rate                            : 48.0 kHz
Frame rate                               : 31.250 FPS (1536 SPF)
Bit depth                                : 16 bits
Compression mode                         : Lossy
Delay relative to video                  : 14 ms
Stream size                              : 231 MiB (0%)
Title                                    : Maze.Runner.The.Death.Cure.2018.2160p.BluRay.REMUX.HEVC.DTS-HD.MA.TrueHD.7.1.Atmos-FGT
Language                                 : English
Service kind                             : Complete Main
Default                                  : No
Forced                                   : No

Text #1
ID                                       : 15
Format                                   : PGS
Muxing mode                              : zlib
Codec ID                                 : S_HDMV/PGS
Codec ID/Info                            : Picture based subtitle format used on BDs/HD-DVDs
Duration                                 : 2 h 15 min
Bit rate                                 : 28.0 kb/s
Count of elements                        : 3376
Stream size                              : 27.2 MiB (0%)
Title                                    : English-PGS
Language                                 : English
Default                                  : Yes
Forced                                   : No

Text #2
ID                                       : 16
Format                                   : PGS
Muxing mode                              : zlib
Codec ID                                 : S_HDMV/PGS
Codec ID/Info                            : Picture based subtitle format used on BDs/HD-DVDs
Duration                                 : 2 h 22 min
Bit rate                                 : 19.3 kb/s
Count of elements                        : 2786
Stream size                              : 19.7 MiB (0%)
Title                                    : Spanish-PGS
Language                                 : Spanish
Default                                  : No
Forced                                   : No

Text #3
ID                                       : 17
Format                                   : PGS
Muxing mode                              : zlib
Codec ID                                 : S_HDMV/PGS
Codec ID/Info                            : Picture based subtitle format used on BDs/HD-DVDs
Duration                                 : 2 h 22 min
Bit rate                                 : 17.6 kb/s
Count of elements                        : 2374
Stream size                              : 17.9 MiB (0%)
Title                                    : French-PGS
Language                                 : French
Default                                  : No
Forced                                   : No

Text #4
ID                                       : 18
Format                                   : PGS
Muxing mode                              : zlib
Codec ID                                 : S_HDMV/PGS
Codec ID/Info                            : Picture based subtitle format used on BDs/HD-DVDs
Duration                                 : 2 h 22 min
Bit rate                                 : 22.0 kb/s
Count of elements                        : 2744
Stream size                              : 22.4 MiB (0%)
Title                                    : Spanish-PGS
Language                                 : Spanish
Default                                  : No
Forced                                   : No

Text #5
ID                                       : 19
Format                                   : PGS
Muxing mode                              : zlib
Codec ID                                 : S_HDMV/PGS
Codec ID/Info                            : Picture based subtitle format used on BDs/HD-DVDs
Duration                                 : 2 h 22 min
Bit rate                                 : 19.4 kb/s
Count of elements                        : 2172
Stream size                              : 19.7 MiB (0%)
Title                                    : Danish-PGS
Language                                 : Danish
Default                                  : No
Forced                                   : No

Text #6
ID                                       : 20
Format                                   : PGS
Muxing mode                              : zlib
Codec ID                                 : S_HDMV/PGS
Codec ID/Info                            : Picture based subtitle format used on BDs/HD-DVDs
Duration                                 : 2 h 22 min
Bit rate                                 : 17.1 kb/s
Count of elements                        : 2414
Stream size                              : 17.4 MiB (0%)
Title                                    : Dutch-PGS
Language                                 : Dutch
Default                                  : No
Forced                                   : No

Text #7
ID                                       : 21
Format                                   : PGS
Muxing mode                              : zlib
Codec ID                                 : S_HDMV/PGS
Codec ID/Info                            : Picture based subtitle format used on BDs/HD-DVDs
Duration                                 : 2 h 22 min
Bit rate                                 : 19.5 kb/s
Count of elements                        : 2778
Stream size                              : 19.9 MiB (0%)
Title                                    : Finnish-PGS
Language                                 : Finnish
Default                                  : No
Forced                                   : No

Text #8
ID                                       : 22
Format                                   : PGS
Muxing mode                              : zlib
Codec ID                                 : S_HDMV/PGS
Codec ID/Info                            : Picture based subtitle format used on BDs/HD-DVDs
Duration                                 : 2 h 22 min
Bit rate                                 : 20.6 kb/s
Count of elements                        : 2580
Stream size                              : 21.0 MiB (0%)
Title                                    : German-PGS
Language                                 : German
Default                                  : No
Forced                                   : No

Text #9
ID                                       : 23
Format                                   : PGS
Muxing mode                              : zlib
Codec ID                                 : S_HDMV/PGS
Codec ID/Info                            : Picture based subtitle format used on BDs/HD-DVDs
Duration                                 : 2 h 22 min
Bit rate                                 : 20.5 kb/s
Count of elements                        : 2780
Stream size                              : 20.9 MiB (0%)
Title                                    : Italian-PGS
Language                                 : Italian
Default                                  : No
Forced                                   : No

Text #10
ID                                       : 24
Format                                   : PGS
Muxing mode                              : zlib
Codec ID                                 : S_HDMV/PGS
Codec ID/Info                            : Picture based subtitle format used on BDs/HD-DVDs
Duration                                 : 2 h 22 min
Bit rate                                 : 12.1 kb/s
Count of elements                        : 2398
Stream size                              : 12.3 MiB (0%)
Title                                    : Japanese-PGS
Language                                 : Japanese
Default                                  : No
Forced                                   : No

Text #11
ID                                       : 25
Format                                   : PGS
Muxing mode                              : zlib
Codec ID                                 : S_HDMV/PGS
Codec ID/Info                            : Picture based subtitle format used on BDs/HD-DVDs
Duration                                 : 2 h 14 min
Bit rate                                 : 50 b/s
Count of elements                        : 10
Stream size                              : 50.2 KiB (0%)
Title                                    : Japanese-FORCED-PGS
Language                                 : Japanese
Default                                  : No
Forced                                   : No

Text #12
ID                                       : 26
Format                                   : PGS
Muxing mode                              : zlib
Codec ID                                 : S_HDMV/PGS
Codec ID/Info                            : Picture based subtitle format used on BDs/HD-DVDs
Duration                                 : 2 h 22 min
Bit rate                                 : 19.0 kb/s
Count of elements                        : 2790
Stream size                              : 19.4 MiB (0%)
Title                                    : Norwegian-PGS
Language                                 : Norwegian
Default                                  : No
Forced                                   : No

Text #13
ID                                       : 27
Format                                   : PGS
Muxing mode                              : zlib
Codec ID                                 : S_HDMV/PGS
Codec ID/Info                            : Picture based subtitle format used on BDs/HD-DVDs
Duration                                 : 2 h 22 min
Bit rate                                 : 19.0 kb/s
Count of elements                        : 2788
Stream size                              : 19.4 MiB (0%)
Title                                    : Swedish-PGS
Language                                 : Swedish
Default                                  : No
Forced                                   : No

Text #14
ID                                       : 28
Format                                   : PGS
Muxing mode                              : zlib
Codec ID                                 : S_HDMV/PGS
Codec ID/Info                            : Picture based subtitle format used on BDs/HD-DVDs
Duration                                 : 2 h 22 min
Bit rate                                 : 16.4 kb/s
Count of elements                        : 2792
Stream size                              : 16.7 MiB (0%)
Title                                    : Chinese-PGS
Language                                 : Chinese
Default                                  : No
Forced                                   : No

Text #15
ID                                       : 29
Format                                   : PGS
Muxing mode                              : zlib
Codec ID                                 : S_HDMV/PGS
Codec ID/Info                            : Picture based subtitle format used on BDs/HD-DVDs
Duration                                 : 2 h 22 min
Bit rate                                 : 18.6 kb/s
Count of elements                        : 2792
Stream size                              : 19.0 MiB (0%)
Title                                    : Czech-PGS
Language                                 : Czech
Default                                  : No
Forced                                   : No

Text #16
ID                                       : 30
Format                                   : PGS
Muxing mode                              : zlib
Codec ID                                 : S_HDMV/PGS
Codec ID/Info                            : Picture based subtitle format used on BDs/HD-DVDs
Duration                                 : 2 h 22 min
Bit rate                                 : 16.1 kb/s
Count of elements                        : 2864
Stream size                              : 16.4 MiB (0%)
Title                                    : Chinese-PGS
Language                                 : Chinese
Default                                  : No
Forced                                   : No

Text #17
ID                                       : 31
Format                                   : PGS
Muxing mode                              : zlib
Codec ID                                 : S_HDMV/PGS
Codec ID/Info                            : Picture based subtitle format used on BDs/HD-DVDs
Duration                                 : 2 h 22 min
Bit rate                                 : 16.7 kb/s
Count of elements                        : 2696
Stream size                              : 17.0 MiB (0%)
Title                                    : Polish-PGS
Language                                 : Polish
Default                                  : No
Forced                                   : No

Text #18
ID                                       : 32
Format                                   : PGS
Muxing mode                              : zlib
Codec ID                                 : S_HDMV/PGS
Codec ID/Info                            : Picture based subtitle format used on BDs/HD-DVDs
Duration                                 : 2 h 18 min
Bit rate                                 : 100 kb/s
Count of elements                        : 6771
Stream size                              : 99.8 MiB (0%)
Title                                    : English-COMMENTARY-PGS
Language                                 : English
Default                                  : No
Forced                                   : No

Text #19
ID                                       : 33
Format                                   : PGS
Muxing mode                              : zlib
Codec ID                                 : S_HDMV/PGS
Codec ID/Info                            : Picture based subtitle format used on BDs/HD-DVDs
Duration                                 : 2 h 23 min
Bit rate                                 : 84.8 kb/s
Count of elements                        : 6545
Stream size                              : 87.1 MiB (0%)
Title                                    : Spanish-COMMENTARY-PGS
Language                                 : Spanish
Default                                  : No
Forced                                   : No

Text #20
ID                                       : 34
Format                                   : PGS
Muxing mode                              : zlib
Codec ID                                 : S_HDMV/PGS
Codec ID/Info                            : Picture based subtitle format used on BDs/HD-DVDs
Duration                                 : 2 h 23 min
Bit rate                                 : 82.5 kb/s
Count of elements                        : 6543
Stream size                              : 84.7 MiB (0%)
Title                                    : French-COMMENTARY-PGS
Language                                 : French
Default                                  : No
Forced                                   : No

Text #21
ID                                       : 35
Format                                   : PGS
Muxing mode                              : zlib
Codec ID                                 : S_HDMV/PGS
Codec ID/Info                            : Picture based subtitle format used on BDs/HD-DVDs
Duration                                 : 2 h 23 min
Bit rate                                 : 77.0 kb/s
Count of elements                        : 6545
Stream size                              : 79.1 MiB (0%)
Title                                    : Spanish-COMMENTARY-PGS
Language                                 : Spanish
Default                                  : No
Forced                                   : No

Text #22
ID                                       : 36
Format                                   : PGS
Muxing mode                              : zlib
Codec ID                                 : S_HDMV/PGS
Codec ID/Info                            : Picture based subtitle format used on BDs/HD-DVDs
Duration                                 : 2 h 23 min
Bit rate                                 : 74.8 kb/s
Count of elements                        : 6577
Stream size                              : 76.8 MiB (0%)
Title                                    : Danish-COMMENTARY-PGS
Language                                 : Danish
Default                                  : No
Forced                                   : No

Text #23
ID                                       : 37
Format                                   : PGS
Muxing mode                              : zlib
Codec ID                                 : S_HDMV/PGS
Codec ID/Info                            : Picture based subtitle format used on BDs/HD-DVDs
Duration                                 : 2 h 23 min
Bit rate                                 : 71.6 kb/s
Count of elements                        : 6497
Stream size                              : 73.5 MiB (0%)
Title                                    : Dutch-COMMENTARY-PGS
Language                                 : Dutch
Default                                  : No
Forced                                   : No

Text #24
ID                                       : 38
Format                                   : PGS
Muxing mode                              : zlib
Codec ID                                 : S_HDMV/PGS
Codec ID/Info                            : Picture based subtitle format used on BDs/HD-DVDs
Duration                                 : 2 h 23 min
Bit rate                                 : 72.0 kb/s
Count of elements                        : 6579
Stream size                              : 74.0 MiB (0%)
Title                                    : Finnish-COMMENTARY-PGS
Language                                 : Finnish
Default                                  : No
Forced                                   : No

Text #25
ID                                       : 39
Format                                   : PGS
Muxing mode                              : zlib
Codec ID                                 : S_HDMV/PGS
Codec ID/Info                            : Picture based subtitle format used on BDs/HD-DVDs
Duration                                 : 2 h 23 min
Bit rate                                 : 88.4 kb/s
Count of elements                        : 6517
Stream size                              : 90.8 MiB (0%)
Title                                    : German-COMMENTARY-PGS
Language                                 : German
Default                                  : No
Forced                                   : No

Text #26
ID                                       : 40
Format                                   : PGS
Muxing mode                              : zlib
Codec ID                                 : S_HDMV/PGS
Codec ID/Info                            : Picture based subtitle format used on BDs/HD-DVDs
Duration                                 : 2 h 23 min
Bit rate                                 : 82.2 kb/s
Count of elements                        : 6543
Stream size                              : 84.4 MiB (0%)
Title                                    : Italian-COMMENTARY-PGS
Language                                 : Italian
Default                                  : No
Forced                                   : No

Text #27
ID                                       : 41
Format                                   : PGS
Muxing mode                              : zlib
Codec ID                                 : S_HDMV/PGS
Codec ID/Info                            : Picture based subtitle format used on BDs/HD-DVDs
Duration                                 : 2 h 23 min
Bit rate                                 : 40.0 kb/s
Count of elements                        : 3728
Stream size                              : 41.1 MiB (0%)
Title                                    : Japanese-COMMENTARY-PGS
Language                                 : Japanese
Default                                  : No
Forced                                   : No

Text #28
ID                                       : 42
Format                                   : PGS
Muxing mode                              : zlib
Codec ID                                 : S_HDMV/PGS
Codec ID/Info                            : Picture based subtitle format used on BDs/HD-DVDs
Duration                                 : 2 h 23 min
Bit rate                                 : 75.3 kb/s
Count of elements                        : 6579
Stream size                              : 77.3 MiB (0%)
Title                                    : Norwegian-COMMENTARY-PGS
Language                                 : Norwegian
Default                                  : No
Forced                                   : No

Text #29
ID                                       : 43
Format                                   : PGS
Muxing mode                              : zlib
Codec ID                                 : S_HDMV/PGS
Codec ID/Info                            : Picture based subtitle format used on BDs/HD-DVDs
Duration                                 : 2 h 23 min
Bit rate                                 : 80.1 kb/s
Count of elements                        : 6543
Stream size                              : 82.2 MiB (0%)
Title                                    : Swedish-COMMENTARY-PGS
Language                                 : Swedish
Default                                  : No
Forced                                   : No

Menu
00:00:00.000                             : en:Chapter 1
00:11:31.607                             : en:Chapter 2
00:15:59.750                             : en:Chapter 3
00:20:08.457                             : en:Chapter 4
00:24:34.890                             : en:Chapter 5
00:30:40.547                             : en:Chapter 6
00:36:47.330                             : en:Chapter 7
00:43:15.342                             : en:Chapter 8
00:48:06.341                             : en:Chapter 9
00:55:17.397                             : en:Chapter 10
01:02:42.925                             : en:Chapter 11
01:07:14.488                             : en:Chapter 12
01:11:56.061                             : en:Chapter 13
01:15:48.168                             : en:Chapter 14
01:23:20.328                             : en:Chapter 15
01:29:45.421                             : en:Chapter 16
01:34:00.593                             : en:Chapter 17
01:40:09.795                             : en:Chapter 18
01:43:33.081                             : en:Chapter 19
01:53:38.645                             : en:Chapter 20
01:59:43.885                             : en:Chapter 21
02:04:49.398                             : en:Chapter 22
02:10:03.086                             : en:Chapter 23
02:18:03.817                             : en:Chapter 24

移动迷宫3 / 死亡解药 / 移动迷宫3:死亡解药4k Maze.Runner.The.Death.Cure.2018.2160p.BluRay.HEVC.TrueHD.7.1.Atmos 4K  UHD蓝光原盘电影下载

移动迷宫3:死亡解药4k Maze.Runner.The.Death.Cure.2018.2160p.BluRay.HEVC.TrueHD.7.1.Atmos-COASTER  (4K UHD 蓝光破解版 2160p 61.79GB )
游客,007 皇家赌场:如果您要查看本帖隐藏内容请回复

移动迷宫3:死亡解药4k Maze.Runner.The.Death.Cure.2018.2160p.BluRay.REMUX.HEVC.DTS-HD.MA.TrueHD.7.1.Atmos-FGT  (4K UHD 蓝光破解版 2160p 61.30GB )
游客,如果您要查看本帖隐藏内容请回复



 
沙发
发表于 2018-4-25 23:27 | 只看该作者
thank you very much
板凳
发表于 2018-4-25 23:46 | 只看该作者
地板
发表于 2018-4-25 23:47 | 只看该作者
终于等到了,谢谢分享
5#
发表于 2018-4-25 23:53 | 只看该作者
6#
发表于 2018-4-25 23:57 | 只看该作者
感谢hao4k这个网站提供这么多4K视频资源,太棒了!
7#
发表于 2018-4-26 00:13 | 只看该作者
谢谢分享
8#
发表于 2018-4-26 00:16 | 只看该作者
支持hao4k发展,支持楼主在Hao4k发布4K视频资源。
9#
发表于 2018-4-26 00:22 | 只看该作者
感谢hao4k这个网站提供这么多4K视频资源,太棒了!
10#
发表于 2018-4-26 00:23 | 只看该作者
支持hao4k发展,支持楼主在Hao4k发布4K视频资源。
11#
发表于 2018-4-26 00:23 | 只看该作者
真是太好了
12#
发表于 2018-4-26 00:27 | 只看该作者
谢谢楼主
13#
发表于 2018-4-26 00:27 | 只看该作者
感谢hao4k这个网站提供这么多4K视频资源,太棒了!
14#
发表于 2018-4-26 00:34 | 只看该作者
谢谢楼主,下载收藏了。
15#
发表于 2018-4-26 00:37 | 只看该作者
支持hao4k发展,支持楼主在Hao4k发布4K视频资源。
16#
发表于 2018-4-26 00:43 | 只看该作者
thank you for your sharing
17#
发表于 2018-4-26 01:07 | 只看该作者
thx for sharing
18#
发表于 2018-4-26 01:22 | 只看该作者
感谢hao4k这个网站提供这么多4K视频资源,太棒了!
您需要登录后才可以回帖 登录 | 立即注册

本版积分规则

返回顶部 联系我们