跳转到指定楼层
楼主
发表于 2017-9-22 22:27 | 只看该作者 回帖奖励 |倒序浏览 |阅读模式
[4K] 索尼 BRAVIA OLED A1 4K HDR 演示片 - Food Fizzle (HEVC 60fps 10bit)[2160P/MP4/...
4 E( _' l" ?3 O5 \9 k' s5 ?, s) V索尼 BRAVIA OLED A1 4K HDR 演示片 - Food Fizzle (HEVC 60fps 10bit)[2160P/MP4/726MB]
& e* Q* F$ {* Z9 ?4 o(OLED电视专用4K演示片)4 B- h2 ?  |# I7 _0 e

+ _6 E8 `0 H2 w7 B3 I0 y# b

. e9 w6 m' L" w3 c$ B3 y$ q; t* K5 _
  C  x$ E+ U4 A6 ~  d( Z! H
8 B# B' `( M/ \7 ^2 j% t. G4 i5 E

& m& h8 R$ L( b3 g, w( L7 B9 Y* l% f. ]+ \% ^

, Z/ Q; \: ]4 S1 d' J) G
9 |$ w8 |7 A+ {& Y7 {" x7 P

- Y3 B) V7 @4 Y/ z8 z3 W
- }/ g1 j- s+ I9 K% H! Q
% C" m, O& O" n! n) h) ]! ?

! @5 K2 H% T- w; ^9 `6 e1 J
' v/ T+ ~; p. Q

- o3 P3 }6 m6 V3 L

% p, Y& o5 G7 D. C$ T6 K$ ~- `& u) n

% \+ U, x4 ?* W8 X$ @  P! B" L. r( G
) w0 _, P, W) s6 @5 g1 ]8 c8 P
9 ?  J5 g2 W6 f4 T# ~* r

( a# |$ h1 y' _: D7 N
8 M" \, }& t% N2 H
. s% p% _1 y# h
( h7 G1 A6 @) d$ m' w

1 `% Y" p- y3 n8 E4 y- r# |0 f  f7 U) y, D. ^' z+ H- u, V6 p
General9 y2 o, a5 \. E
Complete name : SONY.BRAVIA.OLED.4K.HDR.DEMO_Food .Fizzle.mp47 C; c0 ]5 W1 w, @. R. m
Format : MPEG-49 |5 m" O, F  C& w
Format profile : Base Media / Version 20 I, }7 E: l0 b' G4 P
Codec ID : mp42 (mp42/iso4)3 z5 h# @3 _0 z$ F3 W* j. V
File size : 726 MiB0 o5 }8 i* `, l* {  ?# k9 T
Duration : 1 min 22 s: B! p/ U$ O$ P1 v" R3 Q' B
Overall bit rate : 74.2 Mbps
1 K9 x% g' T6 N7 p6 mEncoded date : UTC 2017-02-27 02:06:58
+ ~0 [1 j& B9 h' V# b2 w2 H% FTagged date : UTC 2017-02-27 02:06:58
" t1 ?! u$ X3 K! S* s4 H+ w0 b
$ w4 S# f" h* o& gVideo
. r  C: M' j9 KID : 1! L: [. j: x! |* H- O- P- L
Format : HEVC
, ~8 c, |/ R1 o* y" g  @9 TFormat/Info : High Efficiency Video Coding$ D2 S4 N6 K* g/ ~# v
Format profile : Main 10@L5.1@High
' ^: b; H+ n" kCodec ID : hvc1
) f+ l: P% p$ n3 {Codec ID/Info : High Efficiency Video Coding- F  C% I5 f; \+ m* _; W
Duration : 1 min 22 s
! u$ G  B" X$ D& r4 x0 jBit rate : 74.0 Mbps$ K) ]$ L1 c2 `3 a# \$ O
Width : 3840 pixels% b5 s4 j  F: b) e
Height : 2160 pixels! c! s& Y5 K  a9 e: c! E
Display aspect ratio : 16:9
& N$ T5 P- X$ s2 k( g3 OFrame rate mode : Constant8 U6 a0 }' z5 W7 f) b
Frame rate : 59.940 (60000/1001) FPS
. p2 ?- a& G1 }, C* t: bColor space : YUV  ^; x& o, {' C$ ^& n9 Q
Chroma subsampling : 4:2:0 (Type 2)
- R, M/ P/ ]; q: o8 k% b, E! yBit depth : 10 bits
9 ^$ X7 ?' a: x2 n1 o5 E; c' aBits/(Pixel*Frame) : 0.149. S4 ]9 D; `9 N  v9 X* P
Stream size : 725 MiB (100%)! r7 m: I$ C4 U: H- ]
Encoded date : UTC 2017-02-27 02:06:584 V$ s: N3 Z% V* K
Tagged date : UTC 2017-02-27 02:06:58
, u2 @. S' c/ P: X2 U9 k+ |, F) qColor range : Limited
3 E$ F0 |# A3 c5 d+ vColor primaries : BT.2020% Z+ J3 r. L4 p9 f$ }
Transfer characteristics : SMPTE ST 2084
' V# n0 n/ O, M8 _( F  {Matrix coefficients : BT.2020 non-constant; B: W5 A$ I- q. m8 G7 C
Mastering display color primar : R: x=1.000000 y=1.000000, G: x=1.000000 y=1.000000, B: x=1.000000 y=1.000000, White point: x=1.000000 y=1.000000
  R  r! y; C/ ?Mastering display luminance : min: 0.1000 cd/m2, max: 0.5000 cd/m2
) @' Y! x2 k! B1 Q+ ~4 y6 M4 U
6 b& B- P$ G* j/ `Audio
; Y- Y$ ]- n+ H- c" d+ _" nID : 2: a$ D0 R) @" f: ?: B0 g
Format : AAC3 s8 J6 ^# _( n# k
Format/Info : Advanced Audio Codec
; q3 Q# T4 d" A2 Q+ M% w( mFormat profile : LC
" e9 \, G) E$ @' |8 q2 m" xCodec ID : 40; a* _/ ?$ `% e0 n3 r5 g3 c  m
Duration : 1 min 22 s6 f0 J' @2 @, J2 A4 m5 H; S6 n
Bit rate mode : Constant
; r; O& Y! X8 i5 fBit rate : 192 kbps3 K7 M" D$ k: f$ `! O# h) ^
Channel(s) : 2 channels# K" f  T6 J! g
Channel positions : Front: L R
- F, N: o0 A. A6 T$ m9 F4 GSampling rate : 48.0 kHz6 |1 D. f( C0 Q1 z) K* v' ^
Frame rate : 46.875 FPS (1024 SPF): e9 ~; b0 k  ]& F0 V- F7 g
Compression mode : Lossy9 ?# h' P$ O# i" g, e
Stream size : 1.88 MiB (0%)
) ?' c* y! a; N: x% t) K, ULanguage : English
  u( }1 ]5 t. n) v% cEncoded date : UTC 2017-02-27 02:06:58
$ {5 _. J8 L' J- \Tagged date : UTC 2017-02-27 02:06:58; K# n$ {4 J( p8 T: K2 N! y
Demo Ultra HD & HDR (HDR10)by Sony(for Sony OLED A1 Demo)' ~- ^9 U9 G1 h# V8 Y2 N
HDR ! So your TV has to be able to play this format !
! _4 a( P. [* z' @: B在OLED 4K HDR电视上观看才能体验最佳效果!% N* V% U3 k: Y0 Z# B  W# y
播放器 : potplayerrr(2017版本)) s& P: b4 n( s- R* p' q/ C
! ?( U* f5 B/ c; ]2 h" |) T2 Y

# I. B; H# j- a1 ]' \/ {5 n  M, j. d
游客,007 皇家赌场:如果您要查看本帖隐藏内容请回复
; s! S3 D7 A+ l3 \% w& X9 b3 F  J* |
) |# ?5 ^5 h. @+ w0 i# y  c# o  H& E/ t
沙发
发表于 2017-9-22 22:49 来自手机 | 只看该作者
好,很好,非常好!
板凳
发表于 2017-9-22 23:21 | 只看该作者
支持hao4k,支持楼主大人发布4k资源!
地板
发表于 2017-9-23 05:11 来自手机 | 只看该作者
不错 支持下
头像被屏蔽
5#
发表于 2017-9-23 08:00 | 只看该作者
提示: 作者被禁止或删除 内容自动屏蔽
6#
发表于 2017-9-23 08:26 | 只看该作者
确实是难得4k好帖啊,顶先
7#
发表于 2017-9-23 09:02 | 只看该作者
啥也不说了,感谢楼主在hao4k分享4k视频内容哇!
8#
发表于 2017-9-23 09:04 | 只看该作者
珍惜生命、珍惜hao4k网站,果断回帖。
9#
发表于 2017-9-23 09:47 | 只看该作者
好,很好,非常好啥也不说了,感谢楼主在hao4k分享4k视频内容哇!
10#
发表于 2017-9-23 10:00 来自手机 | 只看该作者
楼主能不能高点4k演示视频啊~~~
您需要登录后才可以回帖 登录 | 立即注册

本版积分规则

返回顶部 联系我们
北京快3走势图 nba比分栏不一样 红9娱乐城 连码四中四 吉林快3计划网页版
浙江11选5现场 澳客网比分直播 香港赛马会娱乐城博彩 天津市十一选五走势图 pk10牛牛单双
爱拼彩票 广西快乐十分投注 终极极速赛车 北京赛车pk10软件手机下载 平特肖计算公式
哪个网站有腾讯分分彩 云南11选5开奖记录 北京快乐8软件下载 彩票查询 天津快乐十分开奖号码