[4K] 索尼 BRAVIA OLED A1 4K HDR 演示片 - Food Fizzle (HEVC 60fps 10bit)[2160P/MP4/... 

本文地址:http://www.tuudc.com.cn/thread-12188-1-1.html
文章摘要:[4K] 索尼 BRAVIA OLED A1 4K HDR 演示片,公平合理趔趄登进士,上篮中学高级意兴索然。

2017-09-22 22:27 发布

[4K] 索尼 BRAVIA OLED A1 4K HDR 演示片 - Food Fizzle (HEVC 60fps 10bit)[2160P/MP4/...3 [3 A/ D1 d' x7 N/ I
索尼 BRAVIA OLED A1 4K HDR 演示片 - Food Fizzle (HEVC 60fps 10bit)[2160P/MP4/726MB]
) U# y  o) i$ [9 ]6 n(OLED电视专用4K演示片)' o* A1 q) F" E, l5 _8 s
, C+ p6 \3 L5 z/ r9 D  A$ v, d

+ E% x: c; v9 E% O) M% K0 ~7 ~- H5 u
! h0 P7 F, x! m3 n( \3 n- i
% B+ `) _5 B8 W& `/ M' B6 z' m6 a" ^( [5 X9 p; J+ Q
. U; j8 ^4 J2 r( R9 h0 `; X1 H

2 n: ]: M/ o7 Y ' @9 Y4 Z, x) ~. a6 n* n

2 }: K4 T# S% _
) F7 f% k" z. J: b: T, C" ~0 G& W
' k  [& I+ x3 K" [9 {
, j/ w# z" g4 d* p  i( J
! b* F5 \5 i. R, \$ z# O! x
1 [1 R) P- Q0 N% K- O8 E
* E7 D: _- [2 V& J+ L. a$ U( L* B7 m
, ^" k  ?' C3 |4 e
, E7 V( C, l4 c7 j/ N2 F5 M 4 }( x# U* j- G4 c. J+ ~6 U# {7 r/ f- y

6 s0 |( m4 }( D
3 t9 p# [$ T) y2 x $ C0 o, u& V  z  `" Q
# `7 c  C* k) z
, j. S5 W% t; q: b5 |, ?) l7 ]

* U% u: E- C; C# ^
0 h" n1 t, Y7 i% D9 z( l4 R# W4 u4 q$ m" P

. m, k2 I. R. ^General7 k) q9 u' j; n+ o! [9 Z, H1 w! R6 ^
Complete name : SONY.BRAVIA.OLED.4K.HDR.DEMO_Food .Fizzle.mp4
' C% h$ J/ T- O8 C$ g' M4 nFormat : MPEG-4
' a- n; l; ^2 p0 l7 y8 F* [3 E: tFormat profile : Base Media / Version 2- y* @, `- H1 k5 Q9 f9 c4 y" K
Codec ID : mp42 (mp42/iso4)
) s* Z+ c4 g$ Z2 N; R" h. RFile size : 726 MiB
. A) y- `" q2 X& J( _Duration : 1 min 22 s
# Z) {3 B& M3 Y6 V  Z, fOverall bit rate : 74.2 Mbps2 P8 E- ^8 q. a7 c& {3 `
Encoded date : UTC 2017-02-27 02:06:58
* X& Z+ ~' A1 ~4 d) @; F! WTagged date : UTC 2017-02-27 02:06:58
+ h; f: |7 l2 x4 j5 @% x+ ^4 r/ r& G$ D9 _+ I- D8 r$ P/ U
Video( k2 D! W4 H- t: k" }8 [* C3 A0 U4 ]
ID : 12 {5 x7 o6 t/ s! M
Format : HEVC6 n$ v3 R5 h+ d4 d
Format/Info : High Efficiency Video Coding( a4 @4 }0 p+ i4 D# Y5 H* T, _% q
Format profile : Main 10@L5.1@High
, ^8 I$ F( ]5 A. B, f# j) QCodec ID : hvc1
4 E( y+ s3 I$ E* {Codec ID/Info : High Efficiency Video Coding
4 [2 ~/ B9 I% ~. z4 }( ODuration : 1 min 22 s
4 T" A. T0 |% SBit rate : 74.0 Mbps
# @: {; p1 [7 p2 u8 P( O  N5 mWidth : 3840 pixels
* G( _) P6 }/ g8 w( vHeight : 2160 pixels
0 O  T, u. S! B8 x& v4 Y- i& N$ JDisplay aspect ratio : 16:9
9 n6 Z% B: y6 Z* [2 ^( SFrame rate mode : Constant  A# R, f. X+ o) C: ^
Frame rate : 59.940 (60000/1001) FPS
( K- B& b" b% R! \2 D- W( K# tColor space : YUV7 D* T7 v% f9 S. |3 p6 ~
Chroma subsampling : 4:2:0 (Type 2)& f5 Q# p, g# J) {0 T) x
Bit depth : 10 bits
: v( }, |! U9 O- t$ |, BBits/(Pixel*Frame) : 0.1490 R5 X, b) b- }) c8 x
Stream size : 725 MiB (100%)1 g& @# F! U9 Q- v
Encoded date : UTC 2017-02-27 02:06:58
4 }1 W7 P0 n4 P% G/ N& [2 h. e9 LTagged date : UTC 2017-02-27 02:06:58
! Q% E' k% I3 EColor range : Limited
, H( M1 x  K+ Q$ \% k: dColor primaries : BT.2020  G( F! T' X; ^- T0 H, l! N7 I
Transfer characteristics : SMPTE ST 2084
4 h% [3 l# o! ?; d4 |: ?# h& xMatrix coefficients : BT.2020 non-constant
+ P+ @! f) c8 u- A( @/ e/ VMastering display color primar : R: x=1.000000 y=1.000000, G: x=1.000000 y=1.000000, B: x=1.000000 y=1.000000, White point: x=1.000000 y=1.000000
( J& o$ y/ s+ A4 VMastering display luminance : min: 0.1000 cd/m2, max: 0.5000 cd/m2
  q/ o8 c3 B5 _+ c/ D5 R, C+ y3 r
4 f  R1 b# o0 G& U& t0 ?Audio
) z% }4 J6 q2 ~$ R: {0 CID : 2& B+ a; e" R) Q2 \4 c' M
Format : AAC
* Q0 C7 X, M: a, uFormat/Info : Advanced Audio Codec+ R$ H* d& X) b- o
Format profile : LC
/ I" n2 ~$ j$ XCodec ID : 40+ H- n8 ?- J: P- G* \
Duration : 1 min 22 s( V9 Y7 r2 g! U
Bit rate mode : Constant6 u: c, [" D- _# S& X9 c
Bit rate : 192 kbps# w: t9 ~& A' B- H
Channel(s) : 2 channels
, ~# N: C& [; f0 @Channel positions : Front: L R
9 M, n" d/ e, WSampling rate : 48.0 kHz- \9 Y9 d+ ?) L
Frame rate : 46.875 FPS (1024 SPF)
1 |% D7 }$ L6 t' J9 x1 t2 F0 XCompression mode : Lossy: w5 N4 `% R  K0 v" y
Stream size : 1.88 MiB (0%), F' m" A8 f% B9 I$ v4 c, }5 ]/ u
Language : English  ]6 f9 F+ e1 H/ y' W: s- m
Encoded date : UTC 2017-02-27 02:06:58
3 J& Z) x* [. u' L8 O$ ZTagged date : UTC 2017-02-27 02:06:582 `" B& i" w& i9 C2 ?$ \$ ]
Demo Ultra HD & HDR (HDR10)by Sony(for Sony OLED A1 Demo)# ^. W# X7 I) e' p0 P
HDR ! So your TV has to be able to play this format !
' t/ ?7 N: }9 _. H8 m8 \在OLED 4K HDR电视上观看才能体验最佳效果!
2 \# e9 t( ?" X+ w" A播放器 : potplayerrr(2017版本)
9 e4 q! l* l% m! p
! ]* H5 V! ^# l* i. S( E4 }[4K] 索尼 BRAVIA OLED A1 4K HDR 演示片 - Food Fizzle (HEVC 60fps 10bit)[2160PMP4
$ \9 S7 ^! n# t! c1 ~  ?7 M: @6 k5 K
[4K] 索尼 BRAVIA OLED A1 4K HDR 演示片 - Food Fizzle (HEVC 60fps 10bit)[2160PMP4下载.txt (305 Bytes, 下载次数: 155) 9 O  V1 {2 Q# w# X& y9 Z3 C9 s2 t
3 R) F( z1 `( I! L0 \1 u/ R( t7 ]2 @

全部评论1159

[4K] 索尼 BRAVIA OLED A1 4K HDR 演示片 - Food Fizzle (HEVC 60fps 10bit)[2160P/MP4/... 
返回顶部 联系我们
南粤36选7更新开奖结果 网上玩江苏快3是骗局吗 四川快乐12直选走势图 内蒙古11选五推荐 重庆快乐十分在线
五星做号软件 一分钟赛车有什么漏洞 华东六省15选5浙江风采网走势图 建个时时彩平台多少钱? 快乐12走势图
北京赛车pk10大小走势图 加拿大快乐8开奖api qq三张牌挂 3d开奖结果今天 四川体彩金7乐开奖结果
新疆11选5开奖结果查询 贵州快三开奖结果今天 北京快三大小 时时彩平台哪个好 北京体彩竞彩十一选五