跳转到指定楼层
楼主
发表于 2017-11-30 17:20 | 只看该作者 回帖奖励 |倒序浏览 |阅读模式
维多利亚秘密内衣走秀 全球美女超模 高码收藏版1080i/TS
) n* ]  D$ M( u2 }7 a

2 g# A4 I: L1 L& q" d$ g- c: E7 B! i% |% e' `
+ \; P1 Y/ e: o3 ~# r6 L: w
6 Y' x3 Z+ i* }- c+ T
! ]7 m# T' z% D% f( Q; G5 l) ~

: ], Z3 G8 b8 z6 r0 W  E7 X

5 t3 u: x/ c7 u% J1 }
9 s( @( ]  _& e, J- }' v# d

' K# v. g4 p3 h- u, i5 y# @  `% C) q9 n: s6 i

" v/ c( O9 ~8 Y7 z. u! K+ [5 b2 t& m8 g  S  {* F
6 h  i: o* @* [" @- Y0 n# ~0 x, A

3 ]6 n: H/ M$ s5 S3 i0 f8 u; G

0 U" W0 `+ }" `0 q, j* d' z& k) j& V4 R9 \" k5 L1 @( d* o8 j- k

5 h0 Q- B- Q5 h" y. g# P% D9 C! L3 c5 y. {& G: c" u* ]
; R2 w- r4 a0 [1 c) G" O8 A
0 |2 `" n8 ?8 L  X( d0 p7 {7 f
5 c: _) }: s0 P1 ?

8 n3 b1 O5 P4 t* f5 H& \8 y

- ?9 ?7 q( t1 D. o5 A2 q# B0 P' t; ?. ^. C$ K6 A5 z/ G

/ j, D# n& e8 z8 n: f2 Y# d  m  r4 q$ F3 {% w9 `
8 c9 X9 J, H8 B4 [- u. p+ P6 y

/ D) |& F: X& P. ?1 W

" Z4 C3 n' I3 v
9 u; ~$ m% S6 }  U
* N- ?1 V$ |  J; l
; N. `6 ?# z% {+ d% T( F

( G3 O0 X0 d0 m/ G7 o7 y$ x' z$ d0 N! c

* C$ m, G: \# t/ O4 V: B4 Y1 p! _4 H8 s5 r6 W1 p) E3 ]

' @4 H5 o+ |7 c# r) d$ q' H, z" c
General. V3 i* `8 r! p: `& u) S* O9 s
Unique ID : 198278693116789408771285385503491589211 (0x952B1655690FA7BEB0FEB95BFDD5845B)
6 {+ u1 |. P4 a2 P2 W8 zComplete name : The.Victoria.Secret.Fashion.Show.2017.1080i.HDTV.DTS-HD.MA5.1.H264-ALANiS.mkv. g$ n+ }* s6 V) @" c$ Y. [
Format : Matroska
% J: ^- H3 o* L% o1 ^, NFormat version : Version 4 / Version 2
) n6 d' N! N6 ?$ [File size : 5.20 GiB4 s1 h1 z( q& P/ e
Duration : 42 min 29 s
; }1 B- D0 e+ {1 e5 @, G& eOverall bit rate : 17.5 Mbps& f5 G/ A$ _: ]$ X5 z- g! Y+ }
Encoded date : UTC 2017-11-29 04:50:41& J# F, H$ V! B/ W+ O
Writing application : mkvmerge v18.0.0 ('Apricity') 64-bit
7 w8 e% o' W# l2 X% iWriting library : libebml v1.3.5 + libmatroska v1.4.8
! r/ j, l  o. O5 A, ^: J
) d' t! t7 e7 X$ i* P0 OVideo
- j7 o8 C0 Z$ Y: E8 Q% }6 MID : 1
8 v7 Y5 W" |* GFormat : AVC
! `! ]# k" |; o# dFormat/Info : Advanced Video Codec. n+ p$ e/ T, R& G
Format profile : High 4:2:2@L4.1
$ D. h3 S+ `" g6 [; ]9 T6 eFormat settings : CABAC / 2 Ref Frames9 W. V% s# `0 v0 _
Format settings, CABAC : Yes0 r% v0 @$ z  n* D5 O0 \& @
Format settings, RefFrames : 2 frames7 v  I/ E+ i4 i7 [5 g
Codec ID : V_MPEG4/ISO/AVC1 j/ ]$ [9 e: E' T/ C( K  i
Duration : 42 min 29 s
' a8 m# s. F2 P! sBit rate mode : Constant' x: [: y3 T$ D- q# A: k$ D! [& y
Bit rate : 13.5 Mbps
. x: j* G3 m3 ^3 ^: cNominal bit rate : 15.2 Mbps$ c8 d9 ~( a# [2 D/ l9 n: Y* n3 n
Width : 1920 pixels
. R& E7 S! R1 s. H# j4 M4 EHeight : 1080 pixels
. z+ p. z3 y: b0 aDisplay aspect ratio : 16:9
) s/ _& X6 h3 m8 {, S4 \# sFrame rate mode : Variable
# o2 K5 `8 g: B" h/ s  f5 oFrame rate : 59.940 (60000/1001) FPS- k. V; ^5 [- x3 _
Original frame rate : 29.970 (30000/1001) FPS9 o- |8 I" ]0 [
Color space : YUV
0 a7 D4 O8 [2 X' [Chroma subsampling : 4:2:27 j* T0 {  O8 h& u$ Y, y  e) f" Z+ A
Bit depth : 8 bits+ p0 }0 C1 O% P" E9 Q" k* J# O
Scan type : Interlaced
& p% ?. i5 k- |: a0 J0 l3 jScan type, store method : Separated fields
$ |! G$ A) n( qScan order : Top Field First0 ]& t6 C8 F, a' H1 E
Bits/(Pixel*Frame) : 0.109
$ Y7 a4 c' F. t8 X  r1 n7 OStream size : 4.00 GiB (77%)
/ e+ h1 {9 q' SDefault : Yes( i, h& }* c' w) c
Forced : No5 g/ E$ G4 k# i! m6 t' c
) R3 x% _) Y! K) l# I/ r* b  g4 g
Audio #1( N8 ?% B" C, k+ }7 ?) X
ID : 2
) U5 r& |0 d" sFormat : DTS
& R1 a0 r+ I8 V$ uFormat/Info : Digital Theater Systems6 t) i! G* b6 }6 s: Q- S: |) ?% R( }
Format profile : MA / Core! N8 Z) q& `3 [8 L1 I
Mode : 16- m: T% L8 |( e( r& e' A1 i
Format settings, Endianness : Big
5 z; x  e2 x7 v. KCodec ID : A_DTS3 P  K+ D8 |" ?0 D1 |' s9 J4 [0 A/ E
Duration : 42 min 29 s
4 c& L) `# @# g. ?7 L5 g; r! U) D- k& wBit rate mode : Variable / Constant- r; z% }2 }- w  _' S5 O; R2 r
Bit rate : 3840 kbps / 1509 kbps
1 ?0 p/ ?! L/ |Channel(s) : 6 channels7 }! [/ v5 l% `  ]
Channel positions : Front: L C R, Side: L R, LFE
. |4 t) z4 B2 O) Z# ^7 u. W" DSampling rate : 48.0 kHz; W- Z% ?! L& V: S; `
Frame rate : 93.750 FPS (512 SPF)
# [. `! B; v* @Bit depth : 24 bits) g! W3 o. J3 J' x7 y+ }
Compression mode : Lossless / Lossy
; H: t( w6 X4 V$ h7 OStream size : 1.12 GiB (22%)
" y+ K5 o" T% N% K$ E) iLanguage : English
  k7 X* R& E, f4 [9 }Default : Yes2 w6 `+ E2 P, G) N& F' V: r
Forced : No" A9 U- H* s2 B/ Z9 s

( j% g! {# y% F" }: M1 pAudio #2
: V& d5 G% n/ @3 |' XID : 3/ P! ^1 i; Y' g; h' J; R
Format : MPEG Audio1 i$ G& S4 R; h& d
Format version : Version 1* X- E" d. `& ~: v
Format profile : Layer 2
1 B1 Z" K5 z4 E- U+ yCodec ID : A_MPEG/L2
& }6 U. P9 q% H- G) gCodec ID/Hint : MP2' j! P9 i0 S/ ~( h! \: U+ ~3 l+ e
Duration : 42 min 29 s
6 E# R. }7 J* I* @5 S2 P0 J9 sBit rate mode : Constant- Y( r7 h, w* Q  m$ ?
Bit rate : 256 kbps* D" g8 j. R$ }! a! z1 f) y2 J
Channel(s) : 2 channels3 [5 o& M& }6 P, ~# [/ g7 S7 y
Sampling rate : 48.0 kHz
+ n" t9 e, K: |: U# vFrame rate : 41.667 FPS (1152 SPF)7 X3 j/ A( M" w( L5 J" k3 ~" c4 X
Compression mode : Lossy2 J- L* J0 [# \* R. T' \
Stream size : 77.8 MiB (1%)
! W% S4 h5 I" X- N; ~Language : English) F$ H$ E  T6 f, g" t2 d! R' h
Default : No
# Q) N- X7 T7 `Forced : No

! c9 @3 V. s9 F" c" u; Q( I
维多利亚秘密超模内衣走秀(2017)
+ ~: S+ \2 }# Z$ H3 b
游客,如果您要查看本帖隐藏内容请回复

点评

重新又下一次,这次没有钓金龟广告了  发表于 2017-12-8 09:30
没想到是个钓金龟广告,版主不审核还让这么低端的人来骗K币......  发表于 2017-12-6 17:12


 
沙发
发表于 2017-11-30 17:22 来自手机 | 只看该作者
不错 支持一个了
板凳
发表于 2017-11-30 17:34 | 只看该作者
这个绝对毛        孔都能看到啊,4K 真不错!!
地板
发表于 2017-11-30 17:54 | 只看该作者
到底是 1080i ? 还是4k?
5#
发表于 2017-11-30 17:56 | 只看该作者
啥也不说了,007 皇家赌场:感谢楼主在hao4k分享4k视频内容哇!
6#
发表于 2017-11-30 18:43 | 只看该作者
啥也不说了,感谢楼主在hao4k分享4k视频内容哇!
7#
发表于 2017-11-30 18:49 | 只看该作者
啥也不说了,感谢楼主在hao4k分享4k视频内容哇!
8#
发表于 2017-11-30 19:45 | 只看该作者
最新的一期啊!
9#
发表于 2017-11-30 19:45 | 只看该作者
谢谢大大分享,非常棒的电影
10#
发表于 2017-11-30 19:51 | 只看该作者
确实是难得4k好帖啊,顶先
11#
发表于 2017-11-30 20:16 | 只看该作者
支持一波,这个ts可以
12#
发表于 2017-11-30 20:37 | 只看该作者
啥也不说了,感谢楼主在hao4k分享4k视频内容哇!
13#
发表于 2017-11-30 20:48 | 只看该作者
啥也不说了,感谢楼主在hao4k分享4k视频内容哇!
14#
发表于 2017-11-30 22:56 | 只看该作者
啥也不说了,感谢楼主在hao4k分享4k视频内容哇!
15#
发表于 2017-11-30 23:33 | 只看该作者
啥也不说了,感谢楼主在hao4k分享4k视频内容哇!好快的速度
9 b% \7 r2 H# V4 T1 s4 _
16#
发表于 2017-11-30 23:41 | 只看该作者
赞赞赞赞赞赞赞赞赞赞赞赞赞赞赞赞
17#
发表于 2017-11-30 23:45 | 只看该作者
不错 支持一个了
18#
发表于 2017-12-1 00:30 来自手机 | 只看该作者
农膜回收的时候再给我
您需要登录后才可以回帖 登录 | 立即注册

本版积分规则

返回顶部 联系我们
四川时时彩 香港赛马会官方网删除 福建快三开奖号码 广东快乐10分开奖记录 彩票官网北京快乐8
天津快乐十分论坛 极速时时彩是个国家的 澳洲幸运8走势 分分彩网站 重庆时时彩软件改单
河南快赢481连线走势图 青海快三开奖 w彩票网 线路通畅检查 江苏快三软件 极速时时彩是官方
北京快乐8走势 北京赛车公式算法教程 新北京十一选五走势图 香港六合彩票开奖结果 贵州十一选五任五遗漏