跳转到指定楼层
楼主
发表于 2017-5-3 14:59 | 只看该作者 回帖奖励 |倒序浏览 |阅读模式
/ u+ t+ p" {: O+ e8 B. N
" N1 B& U4 `; D+ f% S

1 \, ~. p6 b; O+ y) ?( \/ {

' n' t2 F: {# D# |: ?
$ F& D! v* V; \3 G

- x0 U5 Z5 B# `  b; {9 }  H  |5 [9 z9 t' |; l
4 C! F6 j6 g8 h/ e% [

0 G7 I' W6 e7 \  J4 ]
5 ]% ]( w( q$ V0 Z+ q, ]& J
2 l! e) C6 c3 F% ~2 l
1 F# {) Q: U# ~

7 r& h; m+ P6 Q- K0 u
" O. @" T& j( s; s& c

/ }, A; d7 N9 G' ^  t4k视频
7 h) s( y) `1 G: v0 E. u. ]Complete name                  : G:[索尼.4K.演示片]世界遗产京都The World Heritage Kyoto.mkv
% B- y; ]" {, [File size                      : 1.39 GiB1 n& f' c" c, O5 f* Y4 X
Duration                    : 2mn 23s
; m( `- T. V3 A1 p. Y$ d+ D; [$ NOverall bit rate          : 83.5 Mbps
" u1 b) r2 x9 NFormat                       : AVC4 P9 k, d0 t' Z
Bit rate                       : 83.4 Mbps6 M# D! ?9 r6 |7 h" K
Width                         : 3 840 pixels" Q& N- p4 K8 s% C5 u
Height                        : 2 160 pixels, Z; Z6 n0 |& }! a
Display aspect ratio   : 16:9
1 E0 f8 O( ~) [8 }5 @: x" XFrame rate                  : 29.970 fps; i1 a" C! ?7 ]# w# m# s. P
Color space                : YUV
" T0 A; e2 E$ k2 t( o) jChroma subsampling   : 4:2:0
; W: N/ b3 A' }( l+ JBit depth                    : 8 bits
& k4 m- e6 v6 L' i( PStream size                 : 1.39 GiB
0 ]' E7 |+ _) B1 V9 m0 O8 k2 V- t' l# g
Audio$ \: u! f0 }1 m" V. K. ^
Format                       : AAC
- [) k; {3 t  r" }9 S4 ECodec ID                   : 40
0 O& x1 y2 L: p6 E+ u6 X6 DDuration                    : 2mn 23s1 v! i0 N3 ?3 q& ?. C& D
Bit rate                       : 128 Kbps
8 S- L/ C' R/ `: k( W5 Y# Z- NNominal bit rate        : 136 bps9 x5 g5 ^8 W& q8 u  F
Maximum bit rate     : 576 Kbps
! |6 P+ h' J: l! Q0 ]: B3 k* NChannel(s)                 : 2 channels
3 r" y- D$ w7 b  Q* s4 kChannel positions     : Front: L R
3 {4 m5 H, C" v! N; B% }1 eSampling rate           : 48.0 KHz1 v# C2 w) j( `( @0 y9 A. a
Stream size                : 2.18 MiB, B4 X. H9 T0 A

2 q' W3 j& ?7 @7 A$ Z* I6 E+ m- d
京都曾作为日本的国都历时1000余年,享有“千年古都”之称。京都古称平安京,城市存在的历史可以追溯到7000年以前。+ L: w! u# p- ~* r& c, _
! o5 Q* Z( R( n5 R3 d0 X3 G* K* m
是体验日本文化旅游胜地。

1 X6 j  ]7 Z6 k  `0 M7 v( G
0 b6 n# H8 B9 D9 a# _索尼4K演示片:世界遗产京都 - 日本历史文化千年古都、色彩浓郁免费下载地址:* S. N0 L! x  C6 P" F- m

0 c( j* |1 k4 M9 A( p0 F

9 l. v- Y3 m% d3 @# `9 f, k5 s
游客,如果您要查看本帖隐藏内容请回复

; H. }  H9 w- _7 p/ f1 y
+ t, {! p- l  E6 w( o# P

/ o3 z& r# U6 X# ]$ r6 u* K3 x8 z. P( {% e5 i

$ @3 j, v: t7 @1 E1 ]6 O
$ h2 L. u) Z6 H# t' q$ k: I- c' `; t" P

8 m5 T. ]# G4 [9 f/ u! e
3 ~: t0 A4 ^; R. D) Z
# G2 p3 h7 _$ b+ t% M4 i


 
沙发
发表于 2017-5-3 15:22 | 只看该作者
急需4k测试短片下载!
板凳
发表于 2017-5-4 00:14 来自手机 | 只看该作者
楼主能不能高点4k演示视频啊~~~
地板
发表于 2017-5-4 04:37 | 只看该作者
我只是路过打酱油的,007 皇家赌场:赞hao4k
5#
发表于 2017-5-4 11:27 来自手机 | 只看该作者
么有分,谁能送我点 K币啊::>_<::
6#
发表于 2017-5-4 13:28 | 只看该作者
4k视频片源我来了,谢谢提供~~
7#
发表于 2017-5-4 15:20 | 只看该作者
谢谢楼主分享,下下试试
8#
发表于 2017-5-4 15:41 | 只看该作者
谢谢楼主分享!
9#
发表于 2017-5-4 19:36 | 只看该作者
下来看看
10#
发表于 2017-5-4 23:39 | 只看该作者
这个必须顶啊!!!
11#
发表于 2017-5-4 23:43 | 只看该作者
啥也不说了,感谢楼主在hao4k分享4k视频内容哇!
12#
发表于 2017-5-5 01:02 | 只看该作者
啥也不说了,感谢楼主在hao4k分享4k视频内容哇!
13#
发表于 2017-5-5 10:29 | 只看该作者
啥也不说了,感谢楼主在hao4k分享4k视频内容哇!
14#
发表于 2017-5-5 23:14 | 只看该作者
啥也不说了,感谢楼主在hao4k分享4k视频内容哇!
15#
发表于 2017-5-6 16:19 | 只看该作者
啥也不说了,感谢楼主在hao4k分享4k视频内容哇!
16#
发表于 2017-5-6 17:59 | 只看该作者
支持hao4k,支持楼主大人发布4k资源!
17#
发表于 2017-5-6 23:36 | 只看该作者
啥也不说了,感谢楼主在hao4k分享4k视频内容哇!
18#
发表于 2017-5-6 23:50 | 只看该作者
666666666666666666666666666
您需要登录后才可以回帖 登录 | 立即注册

本版积分规则

返回顶部 联系我们
排列三图谜专区 福建22选5预测 优游娱乐5.0 北京赛车开奖视频 香港赛马会六合信息网
快乐12开奖结果走势图 七星 腾讯分分彩开奖号码 甘肃11选5计划 极速快乐十分开奖号码
澳门21點玩法 吉林快3预测号码 新疆十一选五开结果 极速11选5直播 31选7
腾讯分分彩开奖直播 幸运农场水果走势图 广东26选5走势图 浙江11选5开奖走势 辛运28开奖结果