索尼 BRAVIA OLED A1 4K HDR 演示片 (高码率 HEVC 60fps 10bit)[2160P/MP4/724MB] 

本文地址:http://www.tuudc.com.cn/thread-9429-1-1.html
文章摘要:索尼 BRAVIA OLED A1 4K HDR 演示片 (高码率 HEVC 60fps 10bit)[2160P/MP4/724MB],僧徒谈优务劣旅馆业,两轮匿迹销声悉尼奥运。

2017-05-18 22:06 发布

索尼 BRAVIA OLED A1 4K HDR 演示片 (高码率 HEVC 60fps 10bit)[2160P/MP4/724MB]) y1 |6 j  @3 g) n% H/ z6 R
# c' c% H9 v  S

$ f, f0 D; u9 q6 e( F; {3 T" ^
9 f% G; d$ R0 K7 F% H8 ^7 e* o" L4 H) [) t/ a- ~# r4 C
0 Y4 d$ D6 f6 q8 r" \

" i* Z' A- i* _8 I5 F  f" S6 B 9 Q6 F) V2 m3 f. o) a
9 b+ g# h- D$ D  q0 `/ s1 G! _
4 l* C, T5 k8 l1 t
6 t1 \0 B* k8 I, E# Y
! [, z3 @  X) Y7 x

# \% g4 d9 M5 N4 {General
: d' e& e. q1 ^Complete name : SONY.BRAVIA.OLED.HDR.4K.DEMO.mp4
, p  N9 K- G3 `' K# }- XFormat : MPEG-4
- ?2 k& w+ [) W  `  NFormat profile : Base Media5 D  z9 n+ U! Y5 Q2 Q9 O- q
Codec ID : isom (isom)
' T: u' A* y! [& h+ V5 q! sFile size : 724 MiB1 A3 a- {9 K+ p
Duration : 1 min 23 s( z. |- ^$ N7 }) u
Overall bit rate mode : Variable: M8 ~, S. I# i) a* n. \% i
Overall bit rate : 73.1 Mbps
: D8 a3 r4 i$ jEncoded date : UTC 2016-10-24 05:40:14
& r4 @! t9 @) |' V9 `7 p" KTagged date : UTC 2016-10-24 05:40:14% y+ C4 H& t6 t7 {0 b. P9 ~, u( J+ l7 T

/ n* ~: u- ]" ~4 uVideo; R3 U3 S7 O. r
ID : 1: I4 M" e/ m9 E+ ?
Format : HEVC
  {. _; `: O7 gFormat/Info : High Efficiency Video Coding
0 i5 ]* B1 i# y9 u7 J) vFormat profile : Main 10@L5.1@High
2 {' I  L8 {! r* v6 OCodec ID : hvc1
8 I" O/ _* J( k. v& ^7 J( \Codec ID/Info : High Efficiency Video Coding9 C& {! c" v+ K' C" {! c( Z9 a- }
Duration : 1 min 23 s; G) d6 y4 s, K2 ?5 x+ @
Bit rate : 72.9 Mbps8 t* @4 s, F& M+ ]5 J& w7 h
Maximum bit rate : 94.2 Mbps
1 l! |2 M6 ~) e5 P4 XWidth : 3840 pixels
8 u2 |# ~! g/ b5 ?/ w3 RHeight : 2160 pixels
/ t# m+ \& M8 X+ g) FDisplay aspect ratio : 16:9
/ q( t$ s+ t1 [* `6 W  _) LFrame rate mode : Constant
- y& t! @. [( h! f. V, |Frame rate : 59.940 (60000/1001) FPS% [' v# d. F7 I3 j5 A/ N. b; T
Color space : YUV
1 `5 t, F' Q& a9 ~" M: gChroma subsampling : 4:2:0 (Type 2)7 F% E: o6 u$ ^& j2 W
Bit depth : 10 bits
2 r2 z! d- K4 R2 ~5 y4 ?' Z, m- zBits/(Pixel*Frame) : 0.147: L9 O, n$ y/ K. b: }
Stream size : 722 MiB (100%)! p2 b: J5 b9 M& s" N* j) ~
Encoded date : UTC 2016-10-24 06:37:11' J1 [0 J; i5 `& r: N8 U
Tagged date : UTC 2016-10-24 05:40:23
. P3 \. H! z0 R/ v1 @Color range : Limited7 G1 h6 x) c' @: k
Color primaries : BT.20204 _, J$ `+ W& h2 Q1 _
Transfer characteristics : SMPTE ST 20848 m. \- Q( ]9 J# b. J2 \, ?
Matrix coefficients : BT.2020 non-constant7 d% y1 M5 k+ r$ x; C; w
Mastering display color primar : R: x=1.000000 y=1.000000, G: x=1.000000 y=1.000000, B: x=1.000000 y=1.000000, White point: x=1.000000 y=1.000000
+ X7 Y9 r3 \4 a9 T! oMastering display luminance : min: 0.1000 cd/m2, max: 0.5000 cd/m2
  y: ~: k! Z2 M% {2 X: _5 ^! F' [6 m3 Z8 D1 o7 O- H# @5 d
Audio( J+ X. o7 V9 r
ID : 2' p8 J% V, s+ m, G9 m4 Y3 m6 V
Format : AAC
, D: q3 [# ~  M" rFormat/Info : Advanced Audio Codec
! Q# k0 D5 I: t" p5 R% |Format profile : LC
9 b! Y+ n8 {' e3 P$ I& rCodec ID : 40
8 D- B9 H, f9 yDuration : 1 min 23 s
( t9 T9 N: g  CSource duration : 1 min 23 s1 g5 f2 M! P6 M
Bit rate mode : Variable7 P; o4 E- m& c: e+ C
Bit rate : 192 kbps, g. _7 H7 ^5 m; k* j
Maximum bit rate : 197 kbps
' |1 G; m. S3 Z: `0 w/ ?% M1 `Channel(s) : 2 channels
# ?4 x; x- b" ^- Q6 u' K* _Channel positions : Front: L R
* K% H$ a  S5 V* O  \6 PSampling rate : 48.0 kHz
) r) h+ ~1 M; l5 Q( }: \& cFrame rate : 46.875 FPS (1024 spf)! K( _3 |1 A+ x2 E8 n" n
Compression mode : Lossy& X& f7 L. [( _. ~+ P3 o5 F
Stream size : 1.90 MiB (0%)6 L, o1 O; s1 k2 R# ^0 s
Source stream size : 1.90 MiB (0%). ~# R( Q+ M3 u7 z  J& e% r* @. w2 D
Language : English
, B& ~) Z, n! L# d3 D/ mEncoded date : UTC 2016-10-24 06:37:11
5 M# C9 S" M6 j3 @4 ^7 iTagged date : UTC 2016-10-24 05:40:23, I7 F. I" |" v; Y9 z
Demo Ultra HD & HDR (HDR10)by Sony(for Sony OLED A1 Demo)% u% |2 ^" L% P1 F
HDR ! So your TV has to be able to play this format ! 3 W7 H; O9 k* j
在4K HDR电视上观看才能体验最佳效果!2 V! Y! F/ A1 n' y) Y
播放器 : Potplaye(2017版本)
# ?8 \4 l5 g% h: b& i% K: Z4 E. Y$ D
索尼 Bravia OLED A1电视
. ?9 f; ]9 w7 O. ^: t
8 |9 @2 [8 o- e4 r, c* W9 T索尼 Bravia OLED A1电视可以说是集多项黑科技于一体,由于采用了OLED屏幕,所以整体机身非常的纤薄,官方宣称电视的厚度仅为7.8mm,几乎和一部iphone不相上下了。另外该款电视的支架设计也是非常的有特色,在支架中集成了屏幕以外的硬件和接口,并且还配有一个低音炮。3 |4 c6 j7 t/ b2 m

$ h( F8 _7 \6 ]6 N. m6 w: A8 ~: V另外索尼 Bravia OLED A1电视的一大亮点则是集成了整个音响系统并保持其极薄的厚度,索尼称之为“银幕声场”Acoustic Surface的技术,运用OLED无背光结构让屏幕本身直接发出声音。
' f' D& H7 m. B9 n* a+ D; h
8 d$ D6 x1 ]1 u7 m9 _
索尼 Bravia OLED A1电视采用了4K HDR图像处理芯片X1进阶版,支持HDR动态逐像重塑技术、4K HDR 14bit平滑渐变、双影像数据库三大技术,另外该款电视采用了安卓7.0系统,扩展性能方面更加的出色,并且还内置Google Assistant智能助手和PlayStation Vue服务。
9 Y$ i# E" b- J+ v
  C. x+ s; ^3 o: R' x
  B' c' o' }- x, q
% t" O4 i& G; T, t# q
索尼 BRAVIA OLED A1 4K HDR 演示片 (高码率 HEVC 60fps 10bit)[2160P/MP4/724MB]MP4百度云盘免费下载:

* ]6 s7 N  v# d5 S) Q1 P3 e6 t7 |8 w! p6 q; E; A$ b  S
索尼 BRAVIA OLED A1 4K HDR 演示片 (高码率 HEVC 60fps 10bit)[2160PMP4724MB]MP4百.txt (301 Bytes, 下载次数: 42)
! b9 T% v: S) F8 c- ^' r8 Y* u* N# J% M& [: m9 g
1 [: D) ^) A! |  e
, r1 T3 _  S& G" m$ Q$ y6 ~  F, F; Q
, D. a& q+ j& ~% _0 N# ~

# l; h! c( l9 y4 C- L
0 t" W, b. U4 h0 k5 _0 @: z2 @# ]0 H& C2 C' L

全部评论1151

索尼 BRAVIA OLED A1 4K HDR 演示片 (高码率 HEVC 60fps 10bit)[2160P/MP4/724MB] 
返回顶部 联系我们
彩经网甘肃11选5走势图 彩票缩水软件哪个好 今日湖北快三走势图 幸运农场走势图-重庆彩 四川快乐十二开奖查询
极速飞艇 山东群英会顺选二位走势图 南昌麻将 湖南幸运赛车开奖结果 青海快三前天走势
福彩3d走势图 河北十一选5多少钱 大乐透走势图 新疆风采25选7走势 快乐炸金花下载
悠洋棋牌 湖南体彩官方app qq游戏三张牌还有吗 北京快3开奖直播 二分彩是啥