跳转到指定楼层
楼主
发表于 2017-5-18 22:06 | 只看该作者 回帖奖励 |倒序浏览 |阅读模式
索尼 BRAVIA OLED A1 4K HDR 演示片 (高码率 HEVC 60fps 10bit)[2160P/MP4/724MB]) C( Y0 v5 V5 O. v  x7 Z* }4 W
0 @0 M) z' c: W8 y. h/ e2 n: J
% M* M+ \9 F" E' N# ~
General! u5 N) p. ]- `# i. ~8 b. k: \; K! i
Complete name : SONY.BRAVIA.OLED.HDR.4K.DEMO.mp4' f1 J6 s' ^2 R' ]1 n
Format : MPEG-4" @1 y( V6 t% @1 D" y
Format profile : Base Media
1 {1 p) h+ {0 y, O: E' |( Y& m$ ]! MCodec ID : isom (isom)+ F* b) T3 R6 p6 S! v
File size : 724 MiB: d2 v% |# S/ F* d" h$ Z
Duration : 1 min 23 s0 {+ a; @5 x+ z# M" e+ e8 D
Overall bit rate mode : Variable) }" A4 ]( |; w3 ~/ {- N
Overall bit rate : 73.1 Mbps
, i5 f6 Y1 m7 IEncoded date : UTC 2016-10-24 05:40:14+ N$ m8 a# E& r9 F
Tagged date : UTC 2016-10-24 05:40:14$ r, E& v" @! {8 H& @  T( a: [
& k% {- o4 o, m1 w  d
Video
2 M2 t4 c0 G/ }+ jID : 1, l* Y0 L: h8 y- f) Y
Format : HEVC
! Y# F; g" e* ~0 E6 r! M2 ^Format/Info : High Efficiency Video Coding& f2 v0 i& b( Z- u, C5 t' w
Format profile : Main 10@L5.1@High
: s1 a. g& z! jCodec ID : hvc1, u; H2 w; W) w' T# E( ^
Codec ID/Info : High Efficiency Video Coding/ L: t1 S% ?$ {% z) h( K
Duration : 1 min 23 s
8 d2 s  ~) H. G0 wBit rate : 72.9 Mbps
8 f: j' w/ d6 y8 ~6 n; u6 ~" WMaximum bit rate : 94.2 Mbps
$ U3 |$ P. K8 H6 [2 I7 P( X  ~Width : 3840 pixels6 U' l' W3 F- I. `+ f
Height : 2160 pixels
. }9 T" B. m4 ~2 w2 @Display aspect ratio : 16:9) x, _- Z3 p3 s& j' s
Frame rate mode : Constant7 \7 V% _1 _' f3 m) X
Frame rate : 59.940 (60000/1001) FPS
& @' `7 ?  A' ^) w2 BColor space : YUV
+ y0 E% g0 E, UChroma subsampling : 4:2:0 (Type 2)$ }. x/ Y% o8 t# Y& l1 n
Bit depth : 10 bits" I6 \+ \) b- n( L5 {" i2 U
Bits/(Pixel*Frame) : 0.147( t; O5 o$ E8 E/ n! V, m
Stream size : 722 MiB (100%)
7 w# h. ]1 [7 `# U' Z4 ]Encoded date : UTC 2016-10-24 06:37:11
" @$ O; B; `! QTagged date : UTC 2016-10-24 05:40:23
! [8 G5 p$ }' k: D$ a8 x4 {Color range : Limited
4 T5 m% Z* ?' m* LColor primaries : BT.20202 \2 W4 e( ~6 K5 ^! }* D; ~; M
Transfer characteristics : SMPTE ST 2084
- z0 F  s% j; X, Y2 Y  ?Matrix coefficients : BT.2020 non-constant* j* ^% G6 I2 @7 A
Mastering display color primar : R: x=1.000000 y=1.000000, G: x=1.000000 y=1.000000, B: x=1.000000 y=1.000000, White point: x=1.000000 y=1.000000- W* w6 J9 m6 n6 c
Mastering display luminance : min: 0.1000 cd/m2, max: 0.5000 cd/m2
3 \% H; I3 |: n' ?6 k' \
( ]5 A! {6 c1 L' u4 N5 ~) mAudio2 u( @9 A- K+ n2 Q
ID : 26 N" w' a6 Y- c
Format : AAC  T% g. @0 S' i3 f4 I
Format/Info : Advanced Audio Codec# q% o0 Z. @2 y3 J  O' v0 D/ T$ d
Format profile : LC! d: Y& [3 j/ H. Z
Codec ID : 40
' W  ?8 m+ d, _$ KDuration : 1 min 23 s4 s! y2 N! g$ z! X
Source duration : 1 min 23 s
. P5 C. v0 x4 z! _0 ABit rate mode : Variable
- A4 D) ]# J" GBit rate : 192 kbps
5 j; a* ^* _; T0 q3 ?4 ?5 Q/ BMaximum bit rate : 197 kbps
2 @5 t( `& n# y8 O' G$ CChannel(s) : 2 channels
# ?7 g+ S9 J" _1 Z2 x% uChannel positions : Front: L R) @: p4 z! n1 f8 g
Sampling rate : 48.0 kHz' m$ i: z; Q) @: F) p( U& i2 A
Frame rate : 46.875 FPS (1024 spf)
% L+ O3 B2 G- a( T- s+ y6 z2 vCompression mode : Lossy
# @4 A% h% E  d% x0 `$ l) VStream size : 1.90 MiB (0%)" I' Y9 A- S  G$ Z
Source stream size : 1.90 MiB (0%)' H' X% [8 r$ @- u5 o$ q
Language : English% G* j; i# P% R/ _5 b
Encoded date : UTC 2016-10-24 06:37:111 u3 ]+ J6 K  L0 b; J' j0 S' Y8 w
Tagged date : UTC 2016-10-24 05:40:23
2 q% I+ s# a8 H4 p& GDemo Ultra HD & HDR (HDR10)by Sony(for Sony OLED A1 Demo)
9 p0 _4 o. O: ]7 pHDR ! So your TV has to be able to play this format ! # `2 u* _9 i4 c
在4K HDR电视上观看才能体验最佳效果!
/ n# o- b( [; C1 d3 Q播放器 : Potplaye(2017版本)+ W& @' }! C4 r5 o
% q2 O% y, O9 J1 N' `/ I
索尼 Bravia OLED A1电视8 Q: B4 O# F, x5 z0 V

! \: w7 k/ j/ Y% W! Q; B; K索尼 Bravia OLED A1电视可以说是集多项黑科技于一体,由于采用了OLED屏幕,所以整体机身非常的纤薄,官方宣称电视的厚度仅为7.8mm,几乎和一部iphone不相上下了。另外该款电视的支架设计也是非常的有特色,在支架中集成了屏幕以外的硬件和接口,并且还配有一个低音炮。: U; L7 T1 [; @( Q
  C2 y& ^. s7 S, W, l
另外索尼 Bravia OLED A1电视的一大亮点则是集成了整个音响系统并保持其极薄的厚度,索尼称之为“银幕声场”Acoustic Surface的技术,运用OLED无背光结构让屏幕本身直接发出声音。

5 k( J; R! R: Y# g
; P, h7 n$ \: V6 g2 V9 \
索尼 Bravia OLED A1电视采用了4K HDR图像处理芯片X1进阶版,支持HDR动态逐像重塑技术、4K HDR 14bit平滑渐变、双影像数据库三大技术,另外该款电视采用了安卓7.0系统,扩展性能方面更加的出色,并且还内置Google Assistant智能助手和PlayStation Vue服务。0 i: y$ T) I1 D" ?5 T% J
/ |8 s/ ?+ ^4 u* ]1 |
. G7 ^# K# v  d4 K1 t

( X0 S9 v1 l( R) C8 U. \; k索尼 BRAVIA OLED A1 4K HDR 演示片 (高码率 HEVC 60fps 10bit)[2160P/MP4/724MB]MP4百度云盘免费下载:
2 f+ a) k7 a. \7 G; W* f

  |6 V1 I: ]/ I2 N3 E/ z6 i9 N. [
7 U8 a' ]; n6 L- ]* s, j- l
游客,如果您要查看本帖隐藏内容请回复

4 F4 F# L6 g4 Q5 N1 P9 e. C4 W7 M- |; o' }

: c- u& o* i, {. u
, n$ i: \+ W' g% `7 A* R
4 [; ?/ S5 m6 `

- q9 {( C7 T  m+ s  h5 i
$ b5 e, Y, R2 k- `: _" G+ l
更多图片 小图 大图
组图打开中,请稍候......


 
沙发
发表于 2017-5-18 22:16 | 只看该作者
么有分,谁能送我点 K币啊::>_<::
板凳
发表于 2017-5-19 00:26 | 只看该作者
支持一下hao4k的发展!
地板
发表于 2017-5-19 00:38 | 只看该作者
支持hao4k,支持楼主大人发布4k资源!
5#
发表于 2017-5-19 03:49 | 只看该作者
感谢楼主,求分享
6#
发表于 2017-5-19 05:37 来自手机 | 只看该作者
我只是路过打酱油的,赞hao4k
7#
发表于 2017-5-19 07:17 来自手机 | 只看该作者
回的人少,我来小顶一下。支持hao4k发展
8#
发表于 2017-5-19 10:14 | 只看该作者
回的人少,我来小顶一下。支持hao4k发展
9#
发表于 2017-5-19 10:48 | 只看该作者

8 X2 J9 z* f5 c; M, j支持一下hao4k的发展!
10#
发表于 2017-5-19 11:30 来自手机 | 只看该作者
谢谢大家分享
11#
发表于 2017-5-19 13:22 | 只看该作者
啥也不说了,感谢楼主在hao4k分享4k视频内容哇!
12#
发表于 2017-5-19 18:37 | 只看该作者
支持一下hao4k的发展!
13#
发表于 2017-5-19 18:59 | 只看该作者
啥也不说了,感谢楼主在hao4k分享4k视频内容哇!
14#
发表于 2017-5-19 19:06 | 只看该作者
确实是难得4k好帖啊,顶先
15#
发表于 2017-5-19 19:07 | 只看该作者
6666666666666666666
16#
发表于 2017-5-19 19:52 | 只看该作者
支持hao4k,支持楼主大人发布4k资源!
17#
发表于 2017-5-19 20:17 | 只看该作者
bugoushiwoejwe w123213
18#
发表于 2017-5-19 21:26 | 只看该作者
啥也不说了,感谢楼主在hao4k分享4k视频内容哇!
您需要登录后才可以回帖 登录 | 立即注册

本版积分规则

返回顶部 联系我们